Классический форум-трекер
canvas not supported
Нас вместе: 4 101 107

Любовь моя / Monamour (2005) BDRip [720p] ATV [MVO]


 
 
RSS
Начать новую тему   Ответить на тему    Торрент-трекер NNM-Club -> Аудио и Видео -> Зарубежное видео HD для устройств Apple
Автор Сообщение
Весельчак У ®
Модератор Apple
Стаж: 6 лет 3 мес.
Сообщений: 5259
Ratio: 147,78
Поблагодарили: 171140
93.94%
Откуда: От Москвы недалеко...
ussr.gif
Любовь моя / Monamour (2005) BDRip [720p] ATV«Discover the most hidden secrets in Marta's diary»
Производство: Италия / Carla Cipriani per Monamour S.r.l.
Жанр: Драма, для взрослых

Режиссер: Тинто Брасс
Продюсер: Карла Чиприани
Актеры: Анна Жимская, Риккардо Марино, Марио Пароди, Нела Лучич, Вирджиния Бэррет, Лео Мантовани, Массимо Карадонна, Федерико Чезарео, Маттео Андреотти

Описание:
Это история любви девушки из Венеции по имени Марта и француза Леона. Всего пять дней длится роман между Мартой и Леоном и их чувства с каждым днем становясь все сильнее. Но у Марты есть муж, который догадывается об увлечении своей жены…


Возраст: 18+ (зрителям, достигшим 18 лет. запрещено для детей)

Продолжительность: 01:38:19
Качество видео: BDRip 720p
Перевод: Профессиональный многоголосый
Субтитры: Русские (full), английские (full)

Видео: H.264, 1280x696 (1.85:1), ~6000 kbps, 23.976 fps
Аудио#1: AAC, 2 ch, 197 Kbps - Русский MVO
Аудио#2: AAC, 2 ch, 197 Kbps - Italiano Original
Аудио#3: AAC, 2 ch, 160 Kbps - English
Аудио#4: AC3, 6 ch, 384 Kbps - Русский MVO
Аудио#5: AC3, 6 ch, 448 Kbps - Italiano Original

Общее
Полное имя : /Volumes/HDD/Movies/NNMC/Monamour.2005.BDRip.720p.m4v
Формат : MPEG-4
Идентификатор кодека : M4V (M4V /M4A /mp42/isom)
Размер файла : 5,07 Гбайт
Продолжительность : 1 ч. 38 м.
Режим общего битрейта : Переменный
Общий поток : 7384 Кбит/сек
Название фильма : Monamour
Исполнитель : Tinto Brass
Режиссёр : Tinto Brass
Исполнитель : Anna Jimskaia / Riccardo Marino / Max Parodi
Студия-производитель : Carla Cipriani per Monamour S.r.l.
Жанр : Dramma, Romance
Тип содержимого : Short Film
Дата записи : UTC 2006-03-07 21:00:00
Дата кодирования : UTC 2020-03-08 10:57:58
Дата пометки : UTC 2020-03-08 11:08:27
Обложка : Yes
HDVideo : Yes

Видео #1
Идентификатор : 1
Формат : AVC
Формат/Информация : Advanced Video Codec
Профиль формата : High@L4.1
Настройки формата : CABAC / 9 Ref Frames
Параметр CABAC формата : Да
Параметр ReFrames формата : 9 кадров
Идентификатор кодека : avc1
Идентификатор кодека/Информация : Advanced Video Coding
Продолжительность : 1 ч. 38 м.
Битрейт : 6000 Кбит/сек
Ширина : 1280 пикселей
Высота : 696 пикселей
Соотношение сторон : 1,85:1
Режим частоты кадров : Переменный
Частота кадров : 23,976 (24000/1001) кадра/сек
Минимальная частота кадров : 23,810 кадра/сек
Максимальная частота кадров : 24,390 кадра/сек
Цветовое пространство : YUV
Субдискретизация насыщенности : 4:2:0
Битовая глубина : 8 бит
Тип развёртки : Прогрессивная
Бит/(Пиксели*Кадры) : 0.281
Размер потока : 4,12 Гбайт (81%)
Библиотека кодирования : x264 core 116 r2019 9cc407d
Настройки программы : cabac=1 / ref=9 / deblock=1:-3:-3 / analyse=0x3:0x133 / me=umh / subme=10 / psy=1 / psy_rd=0.90:0.00 / mixed_ref=1 / me_range=32 / chroma_me=1 / trellis=2 / 8x8dct=1 / cqm=0 / deadzone=21,11 / fast_pskip=0 / chroma_qp_offset=-2 / threads=24 / sliced_threads=0 / nr=0 / decimate=0 / interlaced=0 / bluray_compat=0 / constrained_intra=0 / bframes=7 / b_pyramid=2 / b_adapt=2 / b_bias=0 / direct=3 / weightb=1 / open_gop=0 / weightp=2 / keyint=250 / keyint_min=23 / scenecut=40 / intra_refresh=0 / rc_lookahead=40 / rc=2pass / mbtree=1 / bitrate=6000 / ratetol=1.0 / qcomp=0.60 / qpmin=0 / qpmax=69 / qpstep=4 / cplxblur=20.0 / qblur=0.5 / ip_ratio=1.40 / aq=2:0.80
Язык : Italian
Дата кодирования : UTC 2020-03-08 10:57:58
Дата пометки : UTC 2020-03-08 11:08:06
Menus : 10,11
Codec configuration box : avcC

Видео #2
Идентификатор : 11
Формат : JPEG
Идентификатор кодека : jpeg
Продолжительность : 1 ч. 38 м.
Вид битрейта : Переменный
Битрейт : 717 бит/сек
Ширина : 640 пикселей
Высота : 348 пикселей
Соотношение сторон : 1,85:1
Режим частоты кадров : Переменный
Частота кадров : 0,002 кадр/сек
Минимальная частота кадров : 0,001 кадр/сек
Максимальная частота кадров : 0,006 кадр/сек
Цветовое пространство : YUV
Субдискретизация насыщенности : 4:2:0
Битовая глубина : 8 бит
Метод сжатия : С потерями
Бит/(Пиксели*Кадры) : 1.610
Размер потока : 525 Кбайт (0%)
Язык : Italian
Default : Нет
Дата кодирования : UTC 2020-03-08 11:08:24
Дата пометки : UTC 2020-03-08 11:08:25
Menu For : 1
ColorSpace_ICC : RGB

Аудио #1
Идентификатор : 2
Формат : AAC LC
Формат/Информация : Advanced Audio Codec Low Complexity
Идентификатор кодека : mp4a-40-2
Продолжительность : 1 ч. 38 м.
Вид битрейта : Переменный
Битрейт : 197 Кбит/сек
Максимальный битрейт : 264 Кбит/сек
Каналы : 2 канала
Channel layout : L R
Частота : 48,0 КГц
Частота кадров : 46,875 кадров/сек (1024 SPF)
Метод сжатия : С потерями
Размер потока : 139 Мбайт (3%)
Язык : Russian
Default : Да
Alternate group : 1
Дата кодирования : UTC 2020-03-08 10:57:58
Дата пометки : UTC 2020-03-08 11:08:06
Fallback From : 5
tagc : public.main-program-content

Аудио #2
Идентификатор : 3
Формат : AAC LC
Формат/Информация : Advanced Audio Codec Low Complexity
Идентификатор кодека : mp4a-40-2
Продолжительность : 1 ч. 38 м.
Вид битрейта : Переменный
Битрейт : 197 Кбит/сек
Максимальный битрейт : 286 Кбит/сек
Каналы : 2 канала
Channel layout : L R
Частота : 48,0 КГц
Частота кадров : 46,875 кадров/сек (1024 SPF)
Метод сжатия : С потерями
Размер потока : 139 Мбайт (3%)
Язык : Italian
Default : Нет
Alternate group : 1
Дата кодирования : UTC 2020-03-08 10:57:58
Дата пометки : UTC 2020-03-08 11:08:06
Fallback From : 6
tagc : public.main-program-content

Аудио #3
Идентификатор : 4
Формат : AAC LC
Формат/Информация : Advanced Audio Codec Low Complexity
Идентификатор кодека : mp4a-40-2
Продолжительность : 1 ч. 38 м.
Вид битрейта : Переменный
Битрейт : 148 Кбит/сек
Максимальный битрейт : 178 Кбит/сек
Каналы : 2 канала
Channel layout : L R
Частота : 48,0 КГц
Частота кадров : 46,875 кадров/сек (1024 SPF)
Метод сжатия : С потерями
Размер потока : 104 Мбайт (2%)
Язык : English
Default : Нет
Alternate group : 1
Дата кодирования : UTC 2020-03-08 10:57:58
Дата пометки : UTC 2020-03-08 11:08:06
tagc : public.main-program-content

Аудио #4
Идентификатор : 5
Формат : AC-3
Формат/Информация : Audio Coding 3
Коммерческое название : Dolby Digital
Идентификатор кодека : ac-3
Продолжительность : 1 ч. 38 м.
Вид битрейта : Постоянный
Битрейт : 384 Кбит/сек
Каналы : 6 каналов
Channel layout : L R C LFE Ls Rs
Частота : 48,0 КГц
Частота кадров : 31,250 кадров/сек (1536 SPF)
Метод сжатия : С потерями
Размер потока : 270 Мбайт (5%)
Язык : Russian
Service kind : Complete Main
Default : Inherited From: 2
Alternate group : 1
Дата кодирования : UTC 2020-03-08 10:57:58
Дата пометки : UTC 2020-03-08 11:08:06
Fallback To : 2
tagc : public.main-program-content

Аудио #5
Идентификатор : 6
Формат : AC-3
Формат/Информация : Audio Coding 3
Коммерческое название : Dolby Digital
Идентификатор кодека : ac-3
Продолжительность : 1 ч. 38 м.
Вид битрейта : Постоянный
Битрейт : 448 Кбит/сек
Каналы : 6 каналов
Channel layout : L R C LFE Ls Rs
Частота : 48,0 КГц
Частота кадров : 31,250 кадров/сек (1536 SPF)
Метод сжатия : С потерями
Размер потока : 315 Мбайт (6%)
Язык : Italian
Service kind : Complete Main
Default : Нет
Alternate group : 1
Дата кодирования : UTC 2020-03-08 10:57:58
Дата пометки : UTC 2020-03-08 11:08:06
Fallback To : 3
tagc : public.main-program-content

Текст #1
Идентификатор : 7
Формат : Timed Text
Режим смешивания : sbtl
Идентификатор кодека : tx3g
Продолжительность : 1 ч. 36 м.
Вид битрейта : Переменный
Битрейт : 2 бит/сек
Размер потока : 1,38 Кбайт (0%)
Язык : Russian
Default : Да
Forced : Нет
Alternate group : 2
Дата кодирования : UTC 2020-03-08 10:57:58
Дата пометки : UTC 2020-03-08 11:08:06
tagc : public.main-program-content

Текст #2
Идентификатор : 8
Формат : Timed Text
Режим смешивания : sbtl
Идентификатор кодека : tx3g
Продолжительность : 1 ч. 36 м.
Вид битрейта : Переменный
Битрейт : 60 бит/сек
Размер потока : 42,4 Кбайт (0%)
Язык : Russian
Default : Нет
Forced : Нет
Alternate group : 2
Дата кодирования : UTC 2020-03-08 10:57:58
Дата пометки : UTC 2020-03-08 11:08:06
tagc : public.auxiliary-content

Текст #3
Идентификатор : 9
Формат : Timed Text
Режим смешивания : sbtl
Идентификатор кодека : tx3g
Продолжительность : 1 ч. 36 м.
Вид битрейта : Переменный
Битрейт : 44 бит/сек
Размер потока : 31,5 Кбайт (0%)
Язык : English
Default : Нет
Forced : Нет
Alternate group : 2
Дата кодирования : UTC 2020-03-08 10:57:58
Дата пометки : UTC 2020-03-08 11:08:06
tagc : public.main-program-content

Меню
Идентификатор : 10
Идентификатор кодека : text
Продолжительность : 1 ч. 38 м.
Язык : English
Дата кодирования : UTC 2020-03-08 11:08:07
Дата пометки : UTC 2020-03-08 11:08:07
Вид битрейта : CBR
Menu For : 1
00:00:00.000 : 00:00:00.000
00:07:04.549 : 00:07:04.549
00:14:15.271 : 00:14:15.271
00:21:39.507 : 00:21:39.507
00:36:50.875 : 00:36:50.875
00:45:15.087 : 00:45:15.087
00:51:22.538 : 00:51:22.538
01:00:48.186 : 01:00:48.186
01:07:48.398 : 01:07:48.398
01:10:44.699 : 01:10:44.699
01:25:37.507 : 01:25:37.507
01:33:19.385 : 01:33:19.385
Вид битрейта : Постоянный


Name: Monamour
Artist: Tinto Brass
Media Kind: Movie
HD Video: 720p
Genre: Dramma, Romance
Release Date: 2006-03-08T21:00:00Z
Studio: Carla Cipriani per Monamour S.r.l.
Cast: Anna Jimskaia, Riccardo Marino, Max Parodi
Director: Tinto Brass

Скриншоты:


Все одноименные релизы в Клубе
Время раздачи: 24/7 (до появления первых 3-5 скачавших)

Релиз подготовлен для просмотра на Apple TV, iPad, iPhone, iPod Touch.
Для просмотра данного релиза на компьютере с ОС Windows рекомендуется использовать VLC media player
[NNMClub.to]_Monamour.2005.BDRip.720p.m4v.torrent
 Торрент:   Зарегистрирован
 
Зарегистрируйтесь и скачайте торрент!
50,9 KB
Free Leech
Примагнититься
 Зарегистрирован:   08 Мар 2020 14:31:54
 Размер:   5,07 GB  (
 Рейтинг:   4,7 (Голосов: 38)
 Поблагодарили:   167
 Проверка:   Оформление проверено модератором 08 Мар 2020 15:37:58
Как cкачать  ·  Как раздать  ·  Правильно оформить  ·  Поднять ратио!  

_________________
«Всё против нас, только ветер навстречу…».
🍏Apple iMac 21.5 (mid 2011) / Intel Core i5 2.7 GHz / AMD Radeon HD 6770M 512 Mb / 12GB DDR3 / Apple Trackpad, Apple Keyboard / macOS High Sierra 10.13.6 (17G12034)
Eklat
Стаж: 10 лет 6 мес.
Сообщений: 326
Ratio: 2,292
37.61%
russia.gif
Анна ЖимЖимская...
ianis
Стаж: 9 лет 1 мес.
Сообщений: 248
Ratio: 3,265
Поблагодарили: 12
100%
Откуда: из дому
germany.gif
Когда уже перестанут выставлять в хорошем свете шлюх в фильмах?!

_________________
Самый большой мой враг это я сам, никак не могу его победить, заразу.
Показать сообщения:   
Начать новую тему   Ответить на тему    Торрент-трекер NNM-Club -> Аудио и Видео -> Зарубежное видео HD для устройств Apple Часовой пояс: GMT + 3
Страница 1 из 1