Классический форум-трекер
canvas not supported
Нас вместе: 4 102 825

Нарушая запреты / Trasgredire (2000) BDRip [720p] ATV


 
 
RSS
Начать новую тему   Ответить на тему    Торрент-трекер NNM-Club -> Аудио и Видео -> Зарубежное видео HD для устройств Apple
Автор Сообщение
Весельчак У ®
Модератор Apple
Стаж: 6 лет 3 мес.
Сообщений: 5276
Ratio: 149,011
Поблагодарили: 172106
94.12%
Откуда: От Москвы недалеко...
ussr.gif
Нарушая запреты / Trasgredire (2000) BDRip [720p] ATV
Производство: Италия / Lion Pictures
Жанр: Драма, комедия, для взрослых

Режиссер: Тинто Брасс
Продюсер: Массимо Ферреро, Джузеппе Гарджиуло
Актеры: Юлия Маярчук, Ярно Берарди, Франческа Нунци, Марио Пароди, Мауро Лоренц, Лейла Карли, Витторио Аттене, Антонио Салинес, Кьяра Джоббато, Ремо Пиццарони

Описание:
Карла Борин молода, сексуальна и полна желаний. Одно из них - освоить английский язык. Для полного погружения в среду Карла приезжает в Лондон, вскоре к ней должен присоединиться её возлюбленный Матео. В поисках жилья она отправляется в агентство недвижимости, где знакомится с его владелицей. Получив соблазнительно выгодное предложение, Карла оказывается в её объятиях... И это лишь небольшой эпизод в её свободной, полной эротических приключений жизни!


Возраст: 18+ (зрителям, достигшим 18 лет. запрещено для детей)

Продолжительность: 01:30:33
Качество видео: BDRip 720р
Перевод: Многоголосый профессиональный (R5)
Субтитры: Русские (вшитые, отключаемые)

Видео: H.264, 1280x720 (16:9), ~5284 kbps, 23.976 fps
Аудио#1: AAC, 2 ch, 198 Kbps - Русский MVO, R5
Аудио#2: AAC, 2 ch, 198 Kbps - Italiano Original

Общее
Полное имя : /Volumes/HDD/Movies/NNMC/Trasgredire.2000.BDRip.720p.m4v
Формат : MPEG-4
Идентификатор кодека : M4V (M4V /M4A /mp42/isom)
Размер файла : 3,59 Гбайт
Продолжительность : 1 ч. 30 м.
Режим общего битрейта : Переменный
Общий поток : 5682 Кбит/сек
Название фильма : Нарушая запреты
Исполнитель : Tinto Brass
Режиссёр : Tinto Brass
Исполнитель : Yuliya Mayarchuk / Jarno Berardi / Francesca Nunzi / Mauro Lorenz / Leila Carli / Vittorio Attene / Antonio Salines / Chiara Gobbato / Remo Pizzaroni / Mauro Sangiorgi / Alberto Passone / Silvia Rossi / Max Parodi
Сценарист : Tinto Brass / Carla Cipriani
Исполнительный продюсер : Massimo Ferrero, Pino Gargiulo
Студия-производитель : Lion Pictures
Жанр : комедия, драма, мелодрама
Тип содержимого : Short Film
Дата записи : UTC 2000-01-28 12:00:00
Дата кодирования : UTC 2020-03-08 13:48:07
Дата пометки : UTC 2020-03-08 14:18:18
Обложка : Yes
LongDescription : Карла Борин молода, сексуальна и полна желаний. Одно из них — освоить английский язык. Для полного погружения в среду Карла приезжает в Лондон, вскоре к ней должен присоединиться ее возлюбленный Матео. В поисках жилья она отправляется в агентство недвижимости, где знакомится с его владелицей. Получив соблазнительно выгодное предложение, Карла оказывается в ее объятиях… И это лишь небольшой эпизод в ее свободной, полной эротических приключений жизни!
HDVideo : Yes

Видео
Идентификатор : 1
Формат : AVC
Формат/Информация : Advanced Video Codec
Профиль формата : High@L4.1
Настройки формата : CABAC / 9 Ref Frames
Параметр CABAC формата : Да
Параметр ReFrames формата : 9 кадров
Идентификатор кодека : avc1
Идентификатор кодека/Информация : Advanced Video Coding
Продолжительность : 1 ч. 30 м.
Битрейт : 5284 Кбит/сек
Ширина : 1280 пикселей
Высота : 720 пикселей
Соотношение сторон : 16:9
Режим частоты кадров : Переменный
Частота кадров : 23,976 кадра/сек
Минимальная частота кадров : 23,810 кадра/сек
Максимальная частота кадров : 24,390 кадра/сек
Цветовое пространство : YUV
Субдискретизация насыщенности : 4:2:0
Битовая глубина : 8 бит
Тип развёртки : Прогрессивная
Бит/(Пиксели*Кадры) : 0.239
Размер потока : 3,34 Гбайт (93%)
Библиотека кодирования : x264 core 125 r2208 d9d2288
Настройки программы : cabac=1 / ref=9 / deblock=1:-3:-3 / analyse=0x3:0x113 / me=umh / subme=10 / psy=1 / psy_rd=1.10:0.15 / mixed_ref=1 / me_range=32 / chroma_me=1 / trellis=2 / 8x8dct=1 / cqm=0 / deadzone=21,11 / fast_pskip=0 / chroma_qp_offset=-2 / threads=12 / lookahead_threads=2 / sliced_threads=0 / nr=0 / decimate=1 / interlaced=0 / bluray_compat=0 / constrained_intra=0 / bframes=6 / b_pyramid=2 / b_adapt=2 / b_bias=0 / direct=3 / weightb=1 / open_gop=0 / weightp=2 / keyint=250 / keyint_min=23 / scenecut=40 / intra_refresh=0 / rc_lookahead=60 / rc=2pass / mbtree=0 / bitrate=5284 / ratetol=1.0 / qcomp=0.60 / qpmin=0 / qpmax=69 / qpstep=4 / cplxblur=20.0 / qblur=0.5 / vbv_maxrate=40000 / vbv_bufsize=30000 / nal_hrd=none / ip_ratio=1.40 / pb_ratio=1.30 / aq=1:0.80
Язык : Italian
Дата кодирования : UTC 2020-03-08 13:48:07
Дата пометки : UTC 2020-03-08 14:18:16
Codec configuration box : avcC

Аудио #1
Идентификатор : 2
Формат : AAC LC
Формат/Информация : Advanced Audio Codec Low Complexity
Идентификатор кодека : mp4a-40-2
Продолжительность : 1 ч. 30 м.
Вид битрейта : Переменный
Битрейт : 198 Кбит/сек
Максимальный битрейт : 317 Кбит/сек
Каналы : 2 канала
Channel layout : L R
Частота : 48,0 КГц
Частота кадров : 46,875 кадров/сек (1024 SPF)
Метод сжатия : С потерями
Размер потока : 128 Мбайт (3%)
Язык : Russian
Default : Да
Alternate group : 1
Дата кодирования : UTC 2020-03-08 13:48:07
Дата пометки : UTC 2020-03-08 14:18:16
tagc : public.main-program-content

Аудио #2
Идентификатор : 3
Формат : AAC LC
Формат/Информация : Advanced Audio Codec Low Complexity
Идентификатор кодека : mp4a-40-2
Продолжительность : 1 ч. 30 м.
Вид битрейта : Переменный
Битрейт : 198 Кбит/сек
Максимальный битрейт : 316 Кбит/сек
Каналы : 2 канала
Channel layout : L R
Частота : 48,0 КГц
Частота кадров : 46,875 кадров/сек (1024 SPF)
Метод сжатия : С потерями
Размер потока : 128 Мбайт (3%)
Язык : Italian
Default : Нет
Alternate group : 1
Дата кодирования : UTC 2020-03-08 13:48:07
Дата пометки : UTC 2020-03-08 14:18:16
tagc : public.main-program-content

Текст
Идентификатор : 4
Формат : Timed Text
Режим смешивания : sbtl
Идентификатор кодека : tx3g
Продолжительность : 1 ч. 27 м.
Вид битрейта : Переменный
Битрейт : 52 бит/сек
Размер потока : 33,2 Кбайт (0%)
Язык : Russian
Default : Да
Forced : Нет
Alternate group : 2
Дата кодирования : UTC 2020-03-08 13:48:07
Дата пометки : UTC 2020-03-08 14:18:16
tagc : public.main-program-content


Name: Нарушая запреты
Artist: Tinto Brass
Media Kind: Movie
HD Video: 720p
Genre: комедия, драма, мелодрама
Release Date: 2000-01-28T12:00:00Z
Long Description: Карла Борин молода, сексуальна и полна желаний. Одно из них — освоить английский язык. Для полного погружения в среду Карла приезжает в Лондон, вскоре к ней должен присоединиться ее возлюбленный Матео. В поисках жилья она отправляется в агентство недвижимости, где знакомится с его владелицей. Получив соблазнительно выгодное предложение, Карла оказывается в ее объятиях… И это лишь небольшой эпизод в ее свободной, полной эротических приключений жизни!
Studio: Lion Pictures
Cast: Yuliya Mayarchuk, Jarno Berardi, Francesca Nunzi, Mauro Lorenz, Leila Carli, Vittorio Attene, Antonio Salines, Chiara Gobbato, Remo Pizzaroni, Mauro Sangiorgi, Alberto Passone, Silvia Rossi, Max Parodi
Director: Tinto Brass
Executive Producer: Massimo Ferrero, Pino Gargiulo
Screenwriters: Tinto Brass, Carla Cipriani

Скриншоты:


Все одноименные релизы в Клубе
Время раздачи: 24/7 (до появления первых 3-5 скачавших)

Релиз подготовлен для просмотра на Apple TV, iPad, iPhone, iPod Touch.
Для просмотра данного релиза на компьютере с ОС Windows рекомендуется использовать VLC media player
[NNMClub.to]_Trasgredire.2000.BDRip.720p.m4v.torrent
 Торрент:   Зарегистрирован
 
Зарегистрируйтесь и скачайте торрент!
36,2 KB
Free Leech
Примагнититься
 Зарегистрирован:   08 Мар 2020 17:29:49
 Размер:   3,59 GB  (
 Рейтинг:   4,9 (Голосов: 49)
 Поблагодарили:   236
 Проверка:   Оформление проверено модератором 08 Мар 2020 21:23:17
Как cкачать  ·  Как раздать  ·  Правильно оформить  ·  Поднять ратио!  

_________________
«Всё против нас, только ветер навстречу…».
🍏Apple iMac 21.5 (mid 2011) / Intel Core i5 2.7 GHz / AMD Radeon HD 6770M 512 Mb / 12GB DDR3 / Apple Trackpad, Apple Keyboard / macOS High Sierra 10.13.6 (17G12034)
bak_lan
Стаж: 10 лет 8 мес.
Сообщений: 464
Ratio: 22,508
100%
russia.gif
Порнография. :да:
v9o4v9a1n
Стаж: 8 лет 10 мес.
Сообщений: 844
Ratio: 2,177
100%
albania.gif
НЕ-А, это эротика!!!

_________________
В дискуссии не вступаю, на вопросы не отвечаю.
Eklat
Стаж: 10 лет 6 мес.
Сообщений: 326
Ratio: 2,293
37.69%
russia.gif
"Описание:
Карла Борин молода, сексуальна и полна желаний."
слаба на передок, короче...
v9o4v9a1n
Стаж: 8 лет 10 мес.
Сообщений: 844
Ratio: 2,177
100%
albania.gif
Если короче.... то для молодой Карлы неинтересен..

_________________
В дискуссии не вступаю, на вопросы не отвечаю.
pitbull40rus
Стаж: 4 года 10 мес.
Сообщений: 52
Ratio: 1,029
67.85%
Юлия Маярчук 🔥🔥🔥
vbear
Стаж: 9 лет 8 мес.
Сообщений: 180
Ratio: 7,487
100%
Верит только в передок, а в костел не ходит..СУДЬБА. Каждой СВОЕ! Как сказал она дура на ОРТ. на 23 я дарю носки, а на 8 я хочу бриллианты)))))))
select77
Стаж: 9 лет 6 мес.
Сообщений: 283
Ratio: 14,888
88.28%
Хорошее кино )))
Цитата:
Главную героиню фильма сыграла одесситка Юлия Маярчук - очаровательная блондинка, с всегда приоткрытым ротиком, вздернутой губкой и попой, мимо которой спокойно пройти сможет редкий мужчина. Брасс - по происхождению, кстати, ее земляк - заприметил красотку в Неаполе. Она работала официанткой в ресторанчике. И то ли она наклонилась за упавшей вилкой, то ли специально повернулась филейной частью к маэстро - уже не важно. При взгляде на ее округлости у режиссера встал комок в горле – и он пригласил Юлию сниматься в своем очередном фильме. Новоиспеченной актрисе пришлось весь фильм на радость зрителю бегать с задранной юбкой.
rogala51
Стаж: 6 лет
Сообщений: 1052
Ratio: 3,915
100%
usa.gif
Хороша така хохлушечка!

_________________
Вообще то мне всё равно.
Показать сообщения:   
Начать новую тему   Ответить на тему    Торрент-трекер NNM-Club -> Аудио и Видео -> Зарубежное видео HD для устройств Apple Часовой пояс: GMT + 3
Страница 1 из 1