Классический форум-трекер
canvas not supported
Нас вместе: 4 102 819

Цвет из иных миров / Color Out of Space (2019) BDRip [720p] ATV


 
 
RSS
Начать новую тему   Ответить на тему    Торрент-трекер NNM-Club -> Аудио и Видео -> Зарубежное видео HD для устройств Apple
Автор Сообщение
Весельчак У ®
Модератор Apple
Стаж: 6 лет 3 мес.
Сообщений: 5276
Ratio: 148,999
Поблагодарили: 172087
94.12%
Откуда: От Москвы недалеко...
ussr.gif
Цвет из иных миров / Color Out of Space (2019) BDRip [720p] ATV
Производство: США, Малайзия, Португалия / SpectreVision, ACE Pictures Entertainment, BRO Cinema
Жанр: Ужасы, фантастика

Режиссер: Ричард Стэнли
Продюсер: Дэниэл Ноа, Джош С. Уоллер, Лиза Уэйлен
Актеры: Николас Кейдж, Джоэли Ричардсон, Мадлен Артур, Эллиот Найт, Томми Чонг, Брендан Мейер, Джулиан Хиллиард, Джош С. Уоллер, К’Орианка Килчер, Мелисса Нирман

Описание:
Фермер Нэйтан Гарднер с женой и тремя детьми живёт в отдалении от цивилизации. Однажды рядом с его домом падает метеорит, на следующий же день исчезает, и теперь вокруг места падения разрастаются необычные цветы, а телевидение и мобильная связь работают с помехами. Приехавший проверить местную воду гидролог уверен, что пить её не стоит, но члены семьи Гарднер не придают этому особого значения и вскоре начинают очень странно себя вести.


Возраст: 16+ (зрителям, достигшим 16 лет)
Дата мировой премьеры: 7 сентября 2019
Дата российской премьеры: 13 февраля 2020, «Парадиз»

Продолжительность: 01:50:00
Качество видео: BDRip 720p
Перевод: Дублированный (iTunes)
Субтитры: Русские (force, full (Dark_Alice)), английские (full)

Видео: H.264, 1280x536 (2.40:1), ~4875 kbps, 24.000 fps
Аудио#1: AAC, 2 ch, 197 Kbps - Русский DUB, iTunes
Аудио#2: AAC, 2 ch, 197 Kbps - English Original
Аудио#3: AC3, 6 ch, 384 Kbps - Русский DUB, iTunes
Аудио#4: AC3, 6 ch, 640 Kbps - English Original

Общее
Полное имя : /Volumes/HDD/Movies/NNMC/Color.Out.of.Space.2019.BDRip.720p.m4v
Формат : MPEG-4
Идентификатор кодека : M4V (M4V /M4A /mp42/isom)
Размер файла : 4,69 Гбайт
Продолжительность : 1 ч. 50 м.
Режим общего битрейта : Переменный
Общий поток : 6099 Кбит/сек
Название фильма : Цвет из иных миров
Исполнитель : Ричард Стэнли
Режиссёр : Ричард Стэнли
Исполнитель : Николас Кейдж / Джоэли Ричардсон / Мадлен Артур / Эллиот Найт / Томми Чонг
Сценарист : Ричард Стэнли / Скарлет Амарис / Говард Филлипс Лавкрафт
Продюсер : Дэниэл Ноа / Лиза Уэйлен / Джош С. Уоллер
Студия-производитель : ACE Pictures Entertainment, BRO Cinema, SpectreVision, XYZ Films
Жанр : Ужасы
Тип содержимого : Short Film
Дата записи : UTC 2020-02-13 08:00:00
Дата кодирования : UTC 2020-03-10 09:11:08
Дата пометки : UTC 2020-03-10 09:15:02
Авторское право : © 2020 Paradise
Обложка : Yes
LongDescription : Фермер Нэйтан Гарднер с женой и тремя детьми живёт в отдалении от цивилизации. Однажды рядом с его домом падает метеорит, на следующий же день исчезает, и теперь вокруг места падения разрастаются необычные цветы, а телевидение и мобильная связь работают с помехами. Приехавший проверить местную воду гидролог уверен, что пить её не стоит, но члены семьи Гарднер не придают этому особого значения и вскоре начинают очень странно себя вести.
HDVideo : Yes
AppleStoreCountry : Russia
AppleStoreCatalogID : 1501126299
ContentRating : ru-movie|16+|375|

Видео #1
Идентификатор : 1
Формат : AVC
Формат/Информация : Advanced Video Codec
Профиль формата : High@L4.1
Настройки формата : CABAC / 12 Ref Frames
Параметр CABAC формата : Да
Параметр ReFrames формата : 12 кадров
Идентификатор кодека : avc1
Идентификатор кодека/Информация : Advanced Video Coding
Продолжительность : 1 ч. 49 м.
Битрейт : 4875 Кбит/сек
Ширина : 1280 пикселей
Высота : 536 пикселей
Соотношение сторон : 2,40:1
Режим частоты кадров : Переменный
Частота кадров : 24,000 кадра/сек
Минимальная частота кадров : 23,810 кадра/сек
Максимальная частота кадров : 24,390 кадра/сек
Цветовое пространство : YUV
Субдискретизация насыщенности : 4:2:0
Битовая глубина : 8 бит
Тип развёртки : Прогрессивная
Бит/(Пиксели*Кадры) : 0.296
Размер потока : 3,74 Гбайт (80%)
Библиотека кодирования : x264 core 159 r2991 1771b55
Настройки программы : cabac=1 / ref=12 / deblock=1:-1:-1 / analyse=0x3:0x133 / me=tesa / subme=11 / psy=1 / psy_rd=1.00:0.00 / mixed_ref=1 / me_range=32 / chroma_me=1 / trellis=2 / 8x8dct=1 / cqm=0 / deadzone=21,11 / fast_pskip=0 / chroma_qp_offset=-2 / threads=17 / lookahead_threads=4 / sliced_threads=0 / nr=0 / decimate=0 / interlaced=0 / bluray_compat=0 / constrained_intra=0 / bframes=10 / b_pyramid=2 / b_adapt=2 / b_bias=0 / direct=3 / weightb=1 / open_gop=0 / weightp=2 / keyint=240 / keyint_min=23 / scenecut=40 / intra_refresh=0 / rc_lookahead=60 / rc=2pass / mbtree=0 / bitrate=4875 / ratetol=1.0 / qcomp=0.70 / qpmin=0 / qpmax=69 / qpstep=4 / cplxblur=20.0 / qblur=0.5 / vbv_maxrate=50000 / vbv_bufsize=62500 / nal_hrd=none / filler=0 / ip_ratio=1.40 / pb_ratio=1.30 / aq=3:0.90
Язык : English
Дата кодирования : UTC 2020-03-10 09:11:08
Дата пометки : UTC 2020-03-10 09:14:56
Menus : 9,10
Codec configuration box : avcC

Видео #2
Идентификатор : 10
Формат : JPEG
Идентификатор кодека : jpeg
Продолжительность : 1 ч. 49 м.
Вид битрейта : Переменный
Битрейт : 243 бит/сек
Ширина : 640 пикселей
Высота : 268 пикселей
Соотношение сторон : 2,40:1
Режим частоты кадров : Переменный
Частота кадров : 0,001 кадр/сек
Минимальная частота кадров : 0,001 кадр/сек
Максимальная частота кадров : 0,005 кадр/сек
Цветовое пространство : YUV
Субдискретизация насыщенности : 4:2:0
Битовая глубина : 8 бит
Метод сжатия : С потерями
Бит/(Пиксели*Кадры) : 1.417
Размер потока : 237 Кбайт (0%)
Язык : English
Default : Нет
Дата кодирования : UTC 2020-03-10 09:15:01
Дата пометки : UTC 2020-03-10 09:15:02
Menu For : 1
ColorSpace_ICC : RGB

Аудио #1
Идентификатор : 2
Формат : AAC LC
Формат/Информация : Advanced Audio Codec Low Complexity
Идентификатор кодека : mp4a-40-2
Продолжительность : 1 ч. 50 м.
Вид битрейта : Переменный
Битрейт : 197 Кбит/сек
Максимальный битрейт : 319 Кбит/сек
Каналы : 2 канала
Channel layout : L R
Частота : 48,0 КГц
Частота кадров : 46,875 кадров/сек (1024 SPF)
Метод сжатия : С потерями
Размер потока : 155 Мбайт (3%)
Язык : Russian
Default : Да
Alternate group : 1
Дата кодирования : UTC 2020-03-10 09:11:08
Дата пометки : UTC 2020-03-10 09:14:56
Fallback From : 4
tagc : public.main-program-content

Аудио #2
Идентификатор : 3
Формат : AAC LC
Формат/Информация : Advanced Audio Codec Low Complexity
Идентификатор кодека : mp4a-40-2
Продолжительность : 1 ч. 50 м.
Вид битрейта : Переменный
Битрейт : 197 Кбит/сек
Максимальный битрейт : 321 Кбит/сек
Каналы : 2 канала
Channel layout : L R
Частота : 48,0 КГц
Частота кадров : 46,875 кадров/сек (1024 SPF)
Метод сжатия : С потерями
Размер потока : 155 Мбайт (3%)
Язык : English
Default : Нет
Alternate group : 1
Дата кодирования : UTC 2020-03-10 09:11:08
Дата пометки : UTC 2020-03-10 09:14:56
Fallback From : 5
tagc : public.main-program-content

Аудио #3
Идентификатор : 4
Формат : AC-3
Формат/Информация : Audio Coding 3
Коммерческое название : Dolby Digital
Идентификатор кодека : ac-3
Продолжительность : 1 ч. 50 м.
Вид битрейта : Постоянный
Битрейт : 384 Кбит/сек
Каналы : 6 каналов
Channel layout : L R C LFE Ls Rs
Частота : 48,0 КГц
Частота кадров : 31,250 кадров/сек (1536 SPF)
Метод сжатия : С потерями
Размер потока : 302 Мбайт (6%)
Язык : Russian
Service kind : Complete Main
Default : Inherited From: 2
Alternate group : 1
Дата кодирования : UTC 2020-03-10 09:11:08
Дата пометки : UTC 2020-03-10 09:14:56
Fallback To : 2
tagc : public.main-program-content

Аудио #4
Идентификатор : 5
Формат : AC-3
Формат/Информация : Audio Coding 3
Коммерческое название : Dolby Digital
Идентификатор кодека : ac-3
Продолжительность : 1 ч. 50 м.
Вид битрейта : Постоянный
Битрейт : 448 Кбит/сек
Каналы : 6 каналов
Channel layout : L R C LFE Ls Rs
Частота : 48,0 КГц
Частота кадров : 31,250 кадров/сек (1536 SPF)
Метод сжатия : С потерями
Размер потока : 352 Мбайт (7%)
Язык : English
Service kind : Complete Main
Default : Нет
Alternate group : 1
Дата кодирования : UTC 2020-03-10 09:11:08
Дата пометки : UTC 2020-03-10 09:14:56
Fallback To : 3
tagc : public.main-program-content

Текст #1
Идентификатор : 6
Формат : Timed Text
Режим смешивания : sbtl
Идентификатор кодека : tx3g
Продолжительность : 1 ч. 3 м.
Вид битрейта : Переменный
Битрейт : 1 бит/сек
Размер потока : 431 байт (0%)
Язык : Russian
Default : Да
Forced : Нет
Alternate group : 2
Дата кодирования : UTC 2020-03-10 09:11:08
Дата пометки : UTC 2020-03-10 09:14:56
tagc : public.subtitles.forced-only

Текст #2
Идентификатор : 7
Формат : Timed Text
Режим смешивания : sbtl
Идентификатор кодека : tx3g
Продолжительность : 1 ч. 46 м.
Вид битрейта : Переменный
Битрейт : 75 бит/сек
Размер потока : 58,2 Кбайт (0%)
Язык : Russian
Default : Нет
Forced : Нет
Alternate group : 2
Дата кодирования : UTC 2020-03-10 09:11:08
Дата пометки : UTC 2020-03-10 09:14:56
tagc : public.main-program-content

Текст #3
Идентификатор : 8
Формат : Timed Text
Режим смешивания : sbtl
Идентификатор кодека : tx3g
Продолжительность : 1 ч. 45 м.
Вид битрейта : Переменный
Битрейт : 53 бит/сек
Размер потока : 41,1 Кбайт (0%)
Язык : English
Default : Нет
Forced : Нет
Alternate group : 2
Дата кодирования : UTC 2020-03-10 09:11:08
Дата пометки : UTC 2020-03-10 09:14:56
tagc : public.main-program-content

Меню
Идентификатор : 9
Идентификатор кодека : text
Продолжительность : 1 ч. 49 м.
Язык : English
Дата кодирования : UTC 2020-03-10 09:14:56
Дата пометки : UTC 2020-03-10 09:14:56
Вид битрейта : CBR
Menu For : 1
00:00:00.000 : Chapter 01
00:15:37.583 : Chapter 02
00:30:00.625 : Chapter 03
00:43:27.833 : Chapter 04
01:00:20.000 : Chapter 05
01:10:45.791 : Chapter 06
01:28:25.542 : Chapter 07
01:46:22.417 : Chapter 08
Вид битрейта : Постоянный


Name: Цвет из иных миров
Artist: Ричард Стэнли
Media Kind: Movie
HD Video: 720p
Genre: Ужасы
Release Date: 2020-02-13T08:00:00Z
Long Description: Фермер Нэйтан Гарднер с женой и тремя детьми живёт в отдалении от цивилизации. Однажды рядом с его домом падает метеорит, на следующий же день исчезает, и теперь вокруг места падения разрастаются необычные цветы, а телевидение и мобильная связь работают с помехами. Приехавший проверить местную воду гидролог уверен, что пить её не стоит, но члены семьи Гарднер не придают этому особого значения и вскоре начинают очень странно себя вести.
Rating: ru-movie|16+|375|
Studio: ACE Pictures Entertainment, BRO Cinema, SpectreVision, XYZ Films
Cast: Николас Кейдж, Джоэли Ричардсон, Мадлен Артур, Эллиот Найт, Томми Чонг
Director: Ричард Стэнли
Producers: Дэниэл Ноа, Лиза Уэйлен, Джош С. Уоллер
Screenwriters: Ричард Стэнли, Скарлет Амарис, Говард Филлипс Лавкрафт
Copyright: © 2020 Paradise
content ID: 1501126299
iTunes Country: 143469

Скриншоты:


Все одноименные релизы в Клубе
Время раздачи: 24/7 (до появления первых 3-5 скачавших)

Релиз подготовлен для просмотра на Apple TV, iPad, iPhone, iPod Touch.
Для просмотра данного релиза на компьютере с ОС Windows рекомендуется использовать VLC media player
[NNMClub.to]_Color.Out.of.Space.2019.BDRip.720p.m4v.torrent
 Торрент: Платиновая раздача  Зарегистрирован
 
Скачать


Примагнититься
 Зарегистрирован:   10 Мар 2020 12:21:46
 Размер:   4,69 GB  (
 Рейтинг:   4,5 (Голосов: 41)
 Поблагодарили:   223
 Проверка:   Оформление проверено модератором 10 Мар 2020 12:52:48
Как cкачать  ·  Как раздать  ·  Правильно оформить  ·  Поднять ратио!  

_________________
«Всё против нас, только ветер навстречу…».
🍏Apple iMac 21.5 (mid 2011) / Intel Core i5 2.7 GHz / AMD Radeon HD 6770M 512 Mb / 12GB DDR3 / Apple Trackpad, Apple Keyboard / macOS High Sierra 10.13.6 (17G12034)
Весельчак У ®
Модератор Apple
Стаж: 6 лет 3 мес.
Сообщений: 5276
Ratio: 148,999
Поблагодарили: 172087
94.12%
Откуда: От Москвы недалеко...
ussr.gif
В субтитрах присутствует ненормативная лексика!

_________________
«Всё против нас, только ветер навстречу…».
🍏Apple iMac 21.5 (mid 2011) / Intel Core i5 2.7 GHz / AMD Radeon HD 6770M 512 Mb / 12GB DDR3 / Apple Trackpad, Apple Keyboard / macOS High Sierra 10.13.6 (17G12034)
Ivnika
Стаж: 9 лет 3 мес.
Сообщений: 71
Ratio: 2,361
36.25%
По описанию похоже на рассказ Лавкрафта

_________________
MacBook Pro (Retina, 15-inch, Mid 2015), Intel Iris Pro 1536 MB
Лёха2010
Стаж: 10 лет
Сообщений: 5
Ratio: 2,614
6.58%
Откуда: Москва
russia.gif
редкостное [ничто]
DevIce2000
Стаж: 9 лет 11 мес.
Сообщений: 275
Ratio: 9,861
100%
russia.gif
Редкостное  ... Хламидия спасла негра, негр выжил, все издохли, Кейдж умер как актер хороший, да и вообще...
SquallLeonhart
Стаж: 9 лет 8 мес.
Сообщений: 2338
Ratio: 97,848
Раздал: 41,33 TB
Поблагодарили: 1525
100%
Откуда: Final Fantasy
nnm-club.gif
Какая же мутотень слов нет просто... :злость: Кхм... вообщем кин специфический и на любителя... на очень редкого любителя =)

_________________
mehanike
Стаж: 9 лет 7 мес.
Сообщений: 49
Ratio: 17,31
100%
За раздачу спасибо а фильм редкостное  !

Добавлено спустя 1 минуту 23 секунды:

 .
valik_tag
Стаж: 9 лет 1 мес.
Сообщений: 15
Ratio: 20,736
100%
russia.gif
Полный БРЕД!!!!!
Фильм вообще ни о чем!!!
Жаль потраченного времени на просмотр.
Входит в десятку самых тупых фильмов.
Показать сообщения:   
Начать новую тему   Ответить на тему    Торрент-трекер NNM-Club -> Аудио и Видео -> Зарубежное видео HD для устройств Apple Часовой пояс: GMT + 3
Страница 1 из 1