Классический форум-трекер
canvas not supported
Нас вместе: 4 104 399

Муха / The Fly (1986) BDRip [720p] ATV


 
 
RSS
Начать новую тему   Ответить на тему    Торрент-трекер NNM-Club -> Аудио и Видео -> Зарубежное видео HD для устройств Apple
Автор Сообщение
Весельчак У ®
Модератор Apple
Стаж: 6 лет 4 мес.
Сообщений: 5363
Ratio: 151,038
Поблагодарили: 174283
94.22%
Откуда: От Москвы недалеко...
ussr.gif
Муха / The Fly (1986) BDRip [720p] ATV«Something went wrong in the lab today...something very wrong...»
Производство: США, Великобритания, Канада / SLM Production Group, Brooksfilms International
Жанр: Ужасы, фантастика, драма

Режиссер: Дэвид Кроненберг
Продюсер: Стюарт Корнфелд, Марк Бойман, Кип Оман,
Актеры: Джефф Голдблюм, Джина Дэвис, Джон Гец, Джой Баушел, Лесли Карлсон, Джордж Чувало, Майкл Коупмен, Дэвид Кроненберг, Кэрол Лазар, Шоун Хьюит

Описание:
Талантливый и немного эксцентричный ученый Сет Брандл изучает проблемы телепортации. Начав с перемещения в пространстве неодушевленных предметов, гений от науки решает поэкспериментировать с живыми существами.
Воодушевленный удачным результатом опыта по телепортации обезьяны, он сам хочет стать объектом эксперимента. Но по воле случая в стерильную камеру залетает муха. Это маленькое насекомое навсегда меняет жизнь Сета — он становится другим. Другим существом…


Возраст: 16+ (зрителям, достигшим 16 лет)
Рейтинг MPAA: R (лицам до 17 лет обязательно присутствие взрослого)

Продолжительность: 01:35:38
Качество видео: BDRip 720p
Перевод: Профессиональный многоголосый, авторский одноголосый
Субтитры: Русские, английские, украинские (вшитые, отключаемые)

Видео: H.264, 1280x694 (1,85:1), ~5834 kbps, 23.976 fps
Аудио#1: AAC, 2.0 ch, 230 Kbps - Русский MVO, ОРТ
Аудио#2: AAC, 2.0 ch, 230 Kbps - Русский MVO, D2lab
Аудио#3: AAC, 2.0 ch, 230 Kbps - Русский MVO, R5
Аудио#4: AAC, 2.0 ch, 230 Kbps - Русский MVO, РЕН-ТВ
Аудио#5: AAC, 2.0 ch, 230 Kbps - Русский AVO, В. Горчаков
Аудио#6: AAC, 2.0 ch, 230 Kbps - Русский AVO, А. Михалев
Аудио#7: AAC, 2.0 ch, 222 Kbps - Український MVO, 1+1
Аудио#8: AAC, 2.0 ch, 230 Kbps - English Original
Аудио#9: AAC, 2.0 ch, 230 Kbps - English Original, Comments
Аудио#10: AC3, 6.0 ch, 384 Kbps - Русский MVO, D2lab
Аудио#11: AC3, 6.0 ch, 640 Kbps - Русский AVO, А. Михалев
Аудио#12: AC3, 6.0 ch, 640 Kbps - Русский AVO, В. Горчаков
Аудио#13: AC3, 6.0 ch, 640 Kbps - English Original

Общее
Полное имя : /Volumes/HDD/Movies/NNMC/The.Fly.1986.BDRip.720p.m4v
Формат : MPEG-4
Идентификатор кодека : M4V (M4V /M4A /mp42/isom)
Размер файла : 6,83 Гбайт
Продолжительность : 1 ч. 35 м.
Режим общего битрейта : Переменный
Общий поток : 10,2 Мбит/сек
Название фильма : Муха
Исполнитель : David Cronenberg
Композитор : Howard Shore
Режиссёр : David Cronenberg
Исполнитель : Jeff Goldblum / Geena Davis / John Getz / Joy Boushel / Leslie Carlson / George Chuvalo / Michael Copeman / David Cronenberg / Carol Lazare / Shawn Hewitt
Сценарист : David Cronenberg / Charles Edward Pogue
Продюсер : Stuart Cornfeld
Студия-производитель : SLM Production Group, Brooksfilms
Жанр : ужасы, фантастика
Тип содержимого : Short Film
Дата записи : UTC 1986-08-15 12:00:00
Дата кодирования : UTC 2020-03-10 20:33:07
Дата пометки : UTC 2020-03-10 20:53:54
Обложка : Yes
LongDescription : Талантливый и немного эксцентричный ученый Сет Брандл изучает проблемы телепортации. Начав с перемещения в пространстве неодушевленных предметов, гений от науки решает поэкспериментировать с живыми существами.Воодушевленный удачным результатом опыта по телепортации обезьяны, он сам хочет стать объектом эксперимента. Но по воле случая в стерильную камеру залетает муха. Это маленькое насекомое навсегда меняет жизнь Сета — он становится другим. Другим существом…
HDVideo : Yes
ContentRating : mpaa|R|400|

Видео
Идентификатор : 1
Формат : AVC
Формат/Информация : Advanced Video Codec
Профиль формата : High@L4.1
Настройки формата : CABAC / 9 Ref Frames
Параметр CABAC формата : Да
Параметр ReFrames формата : 9 кадров
Идентификатор кодека : avc1
Идентификатор кодека/Информация : Advanced Video Coding
Продолжительность : 1 ч. 35 м.
Битрейт : 5834 Кбит/сек
Ширина : 1280 пикселей
Высота : 694 пикселя
Соотношение сторон : 1,85:1
Режим частоты кадров : Переменный
Частота кадров : 23,976 (24000/1001) кадра/сек
Минимальная частота кадров : 23,810 кадра/сек
Максимальная частота кадров : 24,390 кадра/сек
Цветовое пространство : YUV
Субдискретизация насыщенности : 4:2:0
Битовая глубина : 8 бит
Тип развёртки : Прогрессивная
Бит/(Пиксели*Кадры) : 0.274
Размер потока : 3,90 Гбайт (57%)
Библиотека кодирования : x264 core 118 r2085 8a62835
Настройки программы : cabac=1 / ref=9 / deblock=1:-3:-3 / analyse=0x3:0x113 / me=umh / subme=10 / psy=1 / psy_rd=1.00:0.00 / mixed_ref=1 / me_range=48 / chroma_me=1 / trellis=2 / 8x8dct=1 / cqm=0 / deadzone=21,11 / fast_pskip=0 / chroma_qp_offset=-2 / threads=6 / sliced_threads=0 / nr=0 / decimate=1 / interlaced=0 / bluray_compat=0 / constrained_intra=0 / bframes=11 / b_pyramid=2 / b_adapt=2 / b_bias=0 / direct=2 / weightb=1 / open_gop=0 / weightp=2 / keyint=250 / keyint_min=23 / scenecut=40 / intra_refresh=0 / rc=crf / mbtree=0 / crf=18.0 / qcomp=0.60 / qpmin=10 / qpmax=51 / qpstep=4 / ip_ratio=1.40 / pb_ratio=1.30 / aq=1:0.80
Язык : English
Дата кодирования : UTC 2020-03-10 20:33:07
Дата пометки : UTC 2020-03-10 20:53:52
Codec configuration box : avcC

Аудио #1
Идентификатор : 2
Формат : AAC LC
Формат/Информация : Advanced Audio Codec Low Complexity
Идентификатор кодека : mp4a-40-2
Продолжительность : 1 ч. 35 м.
Вид битрейта : Переменный
Битрейт : 230 Кбит/сек
Максимальный битрейт : 360 Кбит/сек
Каналы : 2 канала
Channel layout : L R
Частота : 48,0 КГц
Частота кадров : 46,875 кадров/сек (1024 SPF)
Метод сжатия : С потерями
Размер потока : 158 Мбайт (2%)
Язык : Russian
Default : Нет
Alternate group : 1
Дата кодирования : UTC 2020-03-10 20:33:07
Дата пометки : UTC 2020-03-10 20:53:52
tagc : public.auxiliary-content

Аудио #2
Идентификатор : 3
Формат : AAC LC
Формат/Информация : Advanced Audio Codec Low Complexity
Идентификатор кодека : mp4a-40-2
Продолжительность : 1 ч. 35 м.
Вид битрейта : Переменный
Битрейт : 230 Кбит/сек
Максимальный битрейт : 376 Кбит/сек
Каналы : 2 канала
Channel layout : L R
Частота : 48,0 КГц
Частота кадров : 46,875 кадров/сек (1024 SPF)
Метод сжатия : С потерями
Размер потока : 157 Мбайт (2%)
Язык : Russian
Default : Да
Alternate group : 1
Дата кодирования : UTC 2020-03-10 20:33:07
Дата пометки : UTC 2020-03-10 20:53:52
Fallback From : 11
tagc : public.main-program-content

Аудио #3
Идентификатор : 4
Формат : AAC LC
Формат/Информация : Advanced Audio Codec Low Complexity
Идентификатор кодека : mp4a-40-2
Продолжительность : 1 ч. 35 м.
Вид битрейта : Переменный
Битрейт : 230 Кбит/сек
Максимальный битрейт : 368 Кбит/сек
Каналы : 2 канала
Channel layout : L R
Частота : 48,0 КГц
Частота кадров : 46,875 кадров/сек (1024 SPF)
Метод сжатия : С потерями
Размер потока : 157 Мбайт (2%)
Язык : Russian
Default : Нет
Alternate group : 1
Дата кодирования : UTC 2020-03-10 20:33:07
Дата пометки : UTC 2020-03-10 20:53:52
tagc : public.auxiliary-content

Аудио #4
Идентификатор : 5
Формат : AAC LC
Формат/Информация : Advanced Audio Codec Low Complexity
Идентификатор кодека : mp4a-40-2
Продолжительность : 1 ч. 35 м.
Вид битрейта : Переменный
Битрейт : 230 Кбит/сек
Максимальный битрейт : 273 Кбит/сек
Каналы : 2 канала
Channel layout : L R
Частота : 48,0 КГц
Частота кадров : 46,875 кадров/сек (1024 SPF)
Метод сжатия : С потерями
Размер потока : 157 Мбайт (2%)
Язык : Russian
Default : Нет
Alternate group : 1
Дата кодирования : UTC 2020-03-10 20:33:07
Дата пометки : UTC 2020-03-10 20:53:52
tagc : public.auxiliary-content

Аудио #5
Идентификатор : 6
Формат : AAC LC
Формат/Информация : Advanced Audio Codec Low Complexity
Идентификатор кодека : mp4a-40-2
Продолжительность : 1 ч. 35 м.
Продолжительность оригинала : 1 ч. 35 м.
Вид битрейта : Переменный
Номинальный битрейт : 230 Кбит/сек
Максимальный битрейт : 388 Кбит/сек
Каналы : 2 канала
Channel layout : L R
Частота : 48,0 КГц
Частота кадров : 46,875 кадров/сек (1024 SPF)
Метод сжатия : С потерями
Размер потока оригинала : 158 Мбайт (2%)
Язык : Russian
Default : Нет
Alternate group : 1
Дата кодирования : UTC 2020-03-10 20:33:07
Дата пометки : UTC 2020-03-10 20:53:52
Fallback From : 13
tagc : public.auxiliary-content

Аудио #6
Идентификатор : 7
Формат : AAC LC
Формат/Информация : Advanced Audio Codec Low Complexity
Идентификатор кодека : mp4a-40-2
Продолжительность : 1 ч. 35 м.
Продолжительность оригинала : 1 ч. 35 м.
Вид битрейта : Переменный
Номинальный битрейт : 230 Кбит/сек
Максимальный битрейт : 409 Кбит/сек
Каналы : 2 канала
Channel layout : L R
Частота : 48,0 КГц
Частота кадров : 46,875 кадров/сек (1024 SPF)
Метод сжатия : С потерями
Размер потока оригинала : 158 Мбайт (2%)
Язык : Russian
Default : Нет
Alternate group : 1
Дата кодирования : UTC 2020-03-10 20:33:07
Дата пометки : UTC 2020-03-10 20:53:52
Fallback From : 12
tagc : public.auxiliary-content

Аудио #7
Идентификатор : 8
Формат : AAC LC
Формат/Информация : Advanced Audio Codec Low Complexity
Идентификатор кодека : mp4a-40-2
Продолжительность : 1 ч. 35 м.
Вид битрейта : Переменный
Битрейт : 222 Кбит/сек
Максимальный битрейт : 278 Кбит/сек
Каналы : 2 канала
Channel layout : L R
Частота : 48,0 КГц
Частота кадров : 46,875 кадров/сек (1024 SPF)
Метод сжатия : С потерями
Размер потока : 152 Мбайт (2%)
Язык : Ukrainian
Default : Нет
Alternate group : 1
Дата кодирования : UTC 2020-03-10 20:33:07
Дата пометки : UTC 2020-03-10 20:53:52
tagc : public.main-program-content

Аудио #8
Идентификатор : 9
Формат : AAC LC
Формат/Информация : Advanced Audio Codec Low Complexity
Идентификатор кодека : mp4a-40-2
Продолжительность : 1 ч. 35 м.
Продолжительность оригинала : 1 ч. 35 м.
Вид битрейта : Переменный
Номинальный битрейт : 230 Кбит/сек
Максимальный битрейт : 394 Кбит/сек
Каналы : 2 канала
Channel layout : L R
Частота : 48,0 КГц
Частота кадров : 46,875 кадров/сек (1024 SPF)
Метод сжатия : С потерями
Размер потока оригинала : 158 Мбайт (2%)
Язык : English
Default : Нет
Alternate group : 1
Дата кодирования : UTC 2020-03-10 20:33:07
Дата пометки : UTC 2020-03-10 20:53:52
Fallback From : 14
tagc : public.main-program-content

Аудио #9
Идентификатор : 10
Формат : AAC LC
Формат/Информация : Advanced Audio Codec Low Complexity
Идентификатор кодека : mp4a-40-2
Продолжительность : 1 ч. 35 м.
Вид битрейта : Переменный
Битрейт : 230 Кбит/сек
Максимальный битрейт : 370 Кбит/сек
Каналы : 2 канала
Channel layout : L R
Частота : 48,0 КГц
Частота кадров : 46,875 кадров/сек (1024 SPF)
Метод сжатия : С потерями
Размер потока : 157 Мбайт (2%)
Язык : English
Default : Нет
Alternate group : 1
Дата кодирования : UTC 2020-03-10 20:33:07
Дата пометки : UTC 2020-03-10 20:53:52
tagc : public.auxiliary-content

Аудио #10
Идентификатор : 11
Формат : AC-3
Формат/Информация : Audio Coding 3
Коммерческое название : Dolby Digital
Идентификатор кодека : ac-3
Продолжительность : 1 ч. 35 м.
Вид битрейта : Постоянный
Битрейт : 384 Кбит/сек
Каналы : 6 каналов
Channel layout : L R C LFE Ls Rs
Частота : 48,0 КГц
Частота кадров : 31,250 кадров/сек (1536 SPF)
Метод сжатия : С потерями
Размер потока : 263 Мбайт (4%)
Язык : Russian
Service kind : Complete Main
Default : Inherited From: 3
Alternate group : 1
Дата кодирования : UTC 2020-03-10 20:33:07
Дата пометки : UTC 2020-03-10 20:53:52
Fallback To : 3
tagc : public.main-program-content

Аудио #11
Идентификатор : 12
Формат : AC-3
Формат/Информация : Audio Coding 3
Коммерческое название : Dolby Digital
Идентификатор кодека : ac-3
Продолжительность : 1 ч. 35 м.
Продолжительность оригинала : 1 ч. 35 м.
Вид битрейта : Постоянный
Битрейт : 640 Кбит/сек
Каналы : 6 каналов
Channel layout : L R C LFE Ls Rs
Частота : 48,0 КГц
Частота кадров : 31,250 кадров/сек (1536 SPF)
Метод сжатия : С потерями
Размер потока : 438 Мбайт (6%)
Размер потока оригинала : 438 Мбайт (6%)
Язык : Russian
Service kind : Complete Main
Default : Нет
Alternate group : 1
Дата кодирования : UTC 2020-03-10 20:33:07
Дата пометки : UTC 2020-03-10 20:53:52
Fallback To : 7
tagc : public.auxiliary-content

Аудио #12
Идентификатор : 13
Формат : AC-3
Формат/Информация : Audio Coding 3
Коммерческое название : Dolby Digital
Идентификатор кодека : ac-3
Продолжительность : 1 ч. 35 м.
Продолжительность оригинала : 1 ч. 35 м.
Вид битрейта : Постоянный
Битрейт : 640 Кбит/сек
Каналы : 6 каналов
Channel layout : L R C LFE Ls Rs
Частота : 48,0 КГц
Частота кадров : 31,250 кадров/сек (1536 SPF)
Метод сжатия : С потерями
Размер потока : 438 Мбайт (6%)
Размер потока оригинала : 438 Мбайт (6%)
Язык : Russian
Service kind : Complete Main
Default : Нет
Alternate group : 1
Дата кодирования : UTC 2020-03-10 20:33:07
Дата пометки : UTC 2020-03-10 20:53:52
Fallback To : 6
tagc : public.auxiliary-content

Аудио #13
Идентификатор : 14
Формат : AC-3
Формат/Информация : Audio Coding 3
Коммерческое название : Dolby Digital
Идентификатор кодека : ac-3
Продолжительность : 1 ч. 35 м.
Продолжительность оригинала : 1 ч. 35 м.
Вид битрейта : Постоянный
Битрейт : 640 Кбит/сек
Каналы : 6 каналов
Channel layout : L R C LFE Ls Rs
Частота : 48,0 КГц
Частота кадров : 31,250 кадров/сек (1536 SPF)
Метод сжатия : С потерями
Размер потока : 438 Мбайт (6%)
Размер потока оригинала : 438 Мбайт (6%)
Язык : English
Service kind : Complete Main
Default : Нет
Alternate group : 1
Дата кодирования : UTC 2020-03-10 20:33:07
Дата пометки : UTC 2020-03-10 20:53:52
Fallback To : 9
tagc : public.main-program-content

Текст #1
Идентификатор : 15
Формат : Timed Text
Режим смешивания : sbtl
Идентификатор кодека : tx3g
Продолжительность : 1 ч. 32 м.
Вид битрейта : Переменный
Битрейт : 82 бит/сек
Размер потока : 55,6 Кбайт (0%)
Язык : Russian
Default : Да
Forced : Нет
Alternate group : 2
Дата кодирования : UTC 2020-03-10 20:33:07
Дата пометки : UTC 2020-03-10 20:53:52
tagc : public.main-program-content

Текст #2
Идентификатор : 16
Формат : Timed Text
Режим смешивания : sbtl
Идентификатор кодека : tx3g
Продолжительность : 1 ч. 32 м.
Вид битрейта : Переменный
Битрейт : 73 бит/сек
Размер потока : 49,6 Кбайт (0%)
Язык : Russian
Default : Нет
Forced : Нет
Alternate group : 2
Дата кодирования : UTC 2020-03-10 20:33:07
Дата пометки : UTC 2020-03-10 20:53:52
tagc : public.auxiliary-content

Текст #3
Идентификатор : 17
Формат : Timed Text
Режим смешивания : sbtl
Идентификатор кодека : tx3g
Продолжительность : 1 ч. 33 м.
Вид битрейта : Переменный
Битрейт : 62 бит/сек
Размер потока : 42,3 Кбайт (0%)
Язык : Russian
Default : Нет
Forced : Нет
Alternate group : 2
Дата кодирования : UTC 2020-03-10 20:33:07
Дата пометки : UTC 2020-03-10 20:53:52
tagc : public.auxiliary-content

Текст #4
Идентификатор : 18
Формат : Timed Text
Режим смешивания : sbtl
Идентификатор кодека : tx3g
Продолжительность : 1 ч. 33 м.
Вид битрейта : Переменный
Битрейт : 59 бит/сек
Размер потока : 40,4 Кбайт (0%)
Язык : Ukrainian
Default : Нет
Forced : Нет
Alternate group : 2
Дата кодирования : UTC 2020-03-10 20:33:07
Дата пометки : UTC 2020-03-10 20:53:52
tagc : public.main-program-content

Текст #5
Идентификатор : 19
Формат : Timed Text
Режим смешивания : sbtl
Идентификатор кодека : tx3g
Продолжительность : 1 ч. 32 м.
Вид битрейта : Переменный
Битрейт : 48 бит/сек
Размер потока : 32,4 Кбайт (0%)
Язык : English
Default : Нет
Forced : Нет
Alternate group : 2
Дата кодирования : UTC 2020-03-10 20:33:07
Дата пометки : UTC 2020-03-10 20:53:52
tagc : public.main-program-content


Name: Муха
Artist: David Cronenberg
Media Kind: Movie
HD Video: 720p
Genre: ужасы, фантастика
Release Date: 1986-08-15T12:00:00Z
Long Description: Талантливый и немного эксцентричный ученый Сет Брандл изучает проблемы телепортации. Начав с перемещения в пространстве неодушевленных предметов, гений от науки решает поэкспериментировать с живыми существами.Воодушевленный удачным результатом опыта по телепортации обезьяны, он сам хочет стать объектом эксперимента. Но по воле случая в стерильную камеру залетает муха. Это маленькое насекомое навсегда меняет жизнь Сета — он становится другим. Другим существом…
Rating: mpaa|R|400|
Studio: SLM Production Group, Brooksfilms
Cast: Jeff Goldblum, Geena Davis, John Getz, Joy Boushel, Leslie Carlson, George Chuvalo, Michael Copeman, David Cronenberg, Carol Lazare, Shawn Hewitt
Director: David Cronenberg
Producers: Stuart Cornfeld
Screenwriters: David Cronenberg, Charles Edward Pogue
Composer: Howard Shore

Скриншоты:


Все одноименные релизы в Клубе
Время раздачи: 24/7 (до появления первых 3-5 скачавших)

Релиз подготовлен для просмотра на Apple TV, iPad, iPhone, iPod Touch.
Для просмотра данного релиза на компьютере с ОС Windows рекомендуется использовать VLC media player
[NNMClub.to]_The.Fly.1986.BDRip.720p.m4v.torrent
 Торрент: Платиновая раздача  Зарегистрирован
 
Скачать


Примагнититься
 Зарегистрирован:   11 Мар 2020 00:06:01
 Размер:   6,83 GB  (
 Рейтинг:   4,8 (Голосов: 12)
 Поблагодарили:   45
 Проверка:   Оформление проверено модератором 11 Мар 2020 07:39:28
Как cкачать  ·  Как раздать  ·  Правильно оформить  ·  Поднять ратио!  

_________________
«Всё против нас, только ветер навстречу…».
🍏Apple iMac 21.5 (mid 2011) / Intel Core i5 2.7 GHz / AMD Radeon HD 6770M 512 Mb / 12GB DDR3 / Apple Trackpad, Apple Keyboard / macOS High Sierra 10.13.6 (17G12034)
amiga1200
Стаж: 8 лет 7 мес.
Сообщений: 706
Ratio: 5,78
Раздал: 6,66 TB
Поблагодарили: 76
64.48%
Откуда: C.-Петербург
russia.gif
Хороший кино! Смотрел в видеосалоне за рубль, жутковато было!
Весельчак У ®
Модератор Apple
Стаж: 6 лет 4 мес.
Сообщений: 5363
Ratio: 151,038
Поблагодарили: 174283
94.22%
Откуда: От Москвы недалеко...
ussr.gif
amiga1200 писал(а): Перейти к сообщению
Хороший кино! Смотрел в видеосалоне за рубль, жутковато было!...не смог удержаться...
:лол:

_________________
«Всё против нас, только ветер навстречу…».
🍏Apple iMac 21.5 (mid 2011) / Intel Core i5 2.7 GHz / AMD Radeon HD 6770M 512 Mb / 12GB DDR3 / Apple Trackpad, Apple Keyboard / macOS High Sierra 10.13.6 (17G12034)
ryslan2
Стаж: 4 года 2 мес.
Сообщений: 885
Ratio: 11,8
100%
да, в свое время был фурор для советского зрителя...
RVS
Стаж: 9 лет 6 мес.
Сообщений: 433
Ratio: 5,384
Поблагодарили: 1307
26.81%
Откуда: Донбасс
ussr.gif
ryslan2 писал(а): Перейти к сообщению
да, в свое время был фурор для советского зрителя...


рейтинг на IMDb говорит, что фурор был для всех зрителей...

_________________
kotokkotok
Стаж: 9 лет 10 мес.
Сообщений: 56
Ratio: 0,264
6.16%
russia.gif
Первый скрин - спойлер (((
Весельчак У ®
Модератор Apple
Стаж: 6 лет 4 мес.
Сообщений: 5363
Ratio: 151,038
Поблагодарили: 174283
94.22%
Откуда: От Москвы недалеко...
ussr.gif
kotokkotok писал(а): Перейти к сообщению
Первый скрин - спойлер (((

Уж более 30 лет, как спойлер :да:

_________________
«Всё против нас, только ветер навстречу…».
🍏Apple iMac 21.5 (mid 2011) / Intel Core i5 2.7 GHz / AMD Radeon HD 6770M 512 Mb / 12GB DDR3 / Apple Trackpad, Apple Keyboard / macOS High Sierra 10.13.6 (17G12034)
Показать сообщения:   
Начать новую тему   Ответить на тему    Торрент-трекер NNM-Club -> Аудио и Видео -> Зарубежное видео HD для устройств Apple Часовой пояс: GMT + 3
Страница 1 из 1