Классический форум-трекер
canvas not supported
Нас вместе: 4 101 980

Прекрасная эпоха / La Belle Epoque (2019) BDRip [720p] ATV


 
 
RSS
Начать новую тему   Ответить на тему    Торрент-трекер NNM-Club -> Аудио и Видео -> Зарубежное видео HD для устройств Apple
Автор Сообщение
Весельчак У ®
Модератор Apple
Стаж: 6 лет 3 мес.
Сообщений: 5259
Ratio: 148,188
Поблагодарили: 171431
93.94%
Откуда: От Москвы недалеко...
ussr.gif
Прекрасная эпоха / La Belle Epoque (2019) BDRip [720p] ATV
Производство: Франция, Бельгия / Les Films du Kiosque, Pathe
Жанр: Драма, мелодрама, комедия

Режиссер: Николя Бедос
Продюсер: Франсуа Краус, Мартин Мец, Дени Пино-Валенсьенн
Актеры: Даниель Отой, Гийом Кане, Дория Тилье, Фанни Ардан, Пьер Ардити, Дени Подалидес, Микаэль Коэн, Жанн Арене, Бруно Раффаэлли

Описание:
Что если бы вы могли отправиться в любое время в прошлом по своему выбору? Именно такую услугу предоставляет компания, которая готова скрупулёзно восстановить детали любой эпохи на заказ. Одним из ее клиентов становится талантливый художник, переживающий кризис в отношениях со своей любимой женой. Он использует этот шанс, чтобы снова пережить тот день, когда много лет назад он встретил любовь всей своей жизни.


Возраст: 18+ (зрителям, достигшим 18 лет. запрещено для детей)
Рейтинг MPAA: R (лицам до 17 лет обязательно присутствие взрослого)
Дата мировой премьеры: 20 мая 2019
Дата российской премьеры: 28 ноября 2019, «Вольга»

Продолжительность: 01:55:00
Качество видео: BDRip 720p
Перевод: Дублированный (iTunes)
Субтитры: Русские (Full), французские

Видео: H.264, 1280x534 (2.40:1), ~8347 Kbps, 23.976 fps
Аудио#1: AAC, 2 ch, 230 Kbps - Русский DUB, iTunes
Аудио#2: AAC, 2 ch, 230 Kbps - Український DUB, iTunes
Аудио#3: AAC, 2 ch, 231 Kbps - French Original
Аудио#4: AC3, 6 ch, 384 Kbps - Русский DUB, iTunes
Аудио#5: AC3, 6 ch, 384 Kbps - Український DUB, iTunes
Аудио#6: AC3, 6 ch, 640 Kbps - French Original

Общее
Полное имя : /Volumes/HDD/Movies/NNMC/La.Belle.Epoque.2019.BDRip.720p.m4v
Формат : MPEG-4
Идентификатор кодека : M4V (M4V /M4A /mp42/isom)
Размер файла : 8,40 Гбайт
Продолжительность : 1 ч. 55 м.
Режим общего битрейта : Переменный
Общий поток : 10,5 Мбит/сек
Название фильма : Прекрасная эпоха
Исполнитель : Николя Бедос
Режиссёр : Николя Бедос
Исполнитель : Даниель Отой / Гийом Кане / Дория Тилье / Фанни Ардан
Сценарист : Николя Бедос
Продюсер : Мартин Мец
Студия-производитель : Les Films du Kiosque
Жанр : Драма
Тип содержимого : Short Film
Дата записи : UTC 2019-11-28 08:00:00
Дата кодирования : UTC 2020-03-11 11:29:50
Дата пометки : UTC 2020-03-11 11:38:13
Авторское право : © 2019 Volga Film
Обложка : Yes
LongDescription : Что если бы вы могли отправиться в любое время в прошлом по своему выбору? Именно такую услугу предоставляет компания, которая готова скрупулёзно восстановить детали любой эпохи на заказ. Одним из ее клиентов становится талантливый художник, переживающий кризис в отношениях со своей любимой женой. Он использует этот шанс, чтобы снова пережить тот день, когда много лет назад он встретил любовь всей своей жизни.
HDVideo : Yes
AppleStoreCountry : Russia
AppleStoreCatalogID : 1498319118
ContentRating : ru-movie|18+|400|

Видео #1
Идентификатор : 1
Формат : AVC
Формат/Информация : Advanced Video Codec
Профиль формата : High@L4.1
Настройки формата : CABAC / 12 Ref Frames
Параметр CABAC формата : Да
Параметр ReFrames формата : 12 кадров
Идентификатор кодека : avc1
Идентификатор кодека/Информация : Advanced Video Coding
Продолжительность : 1 ч. 55 м.
Битрейт : 8347 Кбит/сек
Ширина : 1280 пикселей
Высота : 534 пикселя
Соотношение сторон : 2,40:1
Режим частоты кадров : Переменный
Частота кадров : 24,000 кадра/сек
Минимальная частота кадров : 23,810 кадра/сек
Максимальная частота кадров : 24,390 кадра/сек
Цветовое пространство : YUV
Субдискретизация насыщенности : 4:2:0
Битовая глубина : 8 бит
Тип развёртки : Прогрессивная
Бит/(Пиксели*Кадры) : 0.509
Размер потока : 6,71 Гбайт (80%)
Библиотека кодирования : x264 core 159 r2991+49 524a90c t_mod_New [0-bit@all X86_64]
Настройки программы : cabac=1 / ref=12 / deblock=1:-3:-3 / analyse=0x3:0x133 / me=umh / subme=10 / psy=1 / fade_compensate=0.00 / psy_rd=0.97:0.00 / mixed_ref=1 / me_range=32 / chroma_me=1 / trellis=2 / 8x8dct=1 / cqm=0 / deadzone=21,11 / fast_pskip=0 / chroma_qp_offset=-2 / threads=17 / lookahead_threads=2 / sliced_threads=0 / nr=0 / decimate=0 / interlaced=0 / bluray_compat=0 / constrained_intra=0 / fgo=0 / bframes=8 / b_pyramid=2 / b_adapt=2 / b_bias=0 / direct=3 / weightb=1 / open_gop=0 / weightp=2 / keyint=240 / keyint_min=24 / scenecut=40 / intra_refresh=0 / rc_lookahead=60 / rc=crf / mbtree=0 / crf=16.1500 / qcomp=0.65 / qpmin=0:0:0 / qpmax=69:69:69 / qpstep=4 / vbv_maxrate=62500 / vbv_bufsize=78125 / crf_max=0.0 / nal_hrd=none / filler=0 / ip_ratio=1.35 / pb_ratio=1.25 / aq=3:0.85 / aq-sensitivity=10.00 / aq-factor=1.00:1.00:1.00 / aq2=0 / aq3=0
Язык : French
Дата кодирования : UTC 2020-03-11 11:29:50
Дата пометки : UTC 2020-03-11 11:38:01
Цветовой диапазон : Limited
Основные цвета : BT.709
Характеристики трансфера : BT.709
Коэффициенты матрицы : BT.709
Menus : 10,11
Codec configuration box : avcC

Видео #2
Идентификатор : 11
Формат : JPEG
Идентификатор кодека : jpeg
Продолжительность : 1 ч. 55 м.
Вид битрейта : Переменный
Битрейт : 540 бит/сек
Ширина : 640 пикселей
Высота : 267 пикселей
Соотношение сторон : 2,40:1
Режим частоты кадров : Переменный
Частота кадров : 0,002 кадр/сек
Минимальная частота кадров : 0,001 кадр/сек
Максимальная частота кадров : 0,002 кадр/сек
Цветовое пространство : YUV
Субдискретизация насыщенности : 4:2:0
Битовая глубина : 8 бит
Метод сжатия : С потерями
Бит/(Пиксели*Кадры) : 1.580
Размер потока : 396 Кбайт (0%)
Язык : French
Default : Нет
Дата кодирования : UTC 2020-03-11 11:38:11
Дата пометки : UTC 2020-03-11 11:38:12
Menu For : 1
ColorSpace_ICC : RGB

Аудио #1
Идентификатор : 2
Формат : AAC LC
Формат/Информация : Advanced Audio Codec Low Complexity
Идентификатор кодека : mp4a-40-2
Продолжительность : 1 ч. 54 м.
Вид битрейта : Переменный
Битрейт : 230 Кбит/сек
Максимальный битрейт : 323 Кбит/сек
Каналы : 2 канала
Channel layout : L R
Частота : 48,0 КГц
Частота кадров : 46,875 кадров/сек (1024 SPF)
Метод сжатия : С потерями
Размер потока : 189 Мбайт (2%)
Язык : Russian
Default : Да
Alternate group : 1
Дата кодирования : UTC 2020-03-11 11:29:50
Дата пометки : UTC 2020-03-11 11:38:01
Fallback From : 5
tagc : public.main-program-content

Аудио #2
Идентификатор : 3
Формат : AAC LC
Формат/Информация : Advanced Audio Codec Low Complexity
Идентификатор кодека : mp4a-40-2
Продолжительность : 1 ч. 54 м.
Вид битрейта : Переменный
Битрейт : 230 Кбит/сек
Максимальный битрейт : 344 Кбит/сек
Каналы : 2 канала
Channel layout : L R
Частота : 48,0 КГц
Частота кадров : 46,875 кадров/сек (1024 SPF)
Метод сжатия : С потерями
Размер потока : 189 Мбайт (2%)
Язык : Ukrainian
Default : Нет
Alternate group : 1
Дата кодирования : UTC 2020-03-11 11:29:50
Дата пометки : UTC 2020-03-11 11:38:01
Fallback From : 6
tagc : public.main-program-content

Аудио #3
Идентификатор : 4
Формат : AAC LC
Формат/Информация : Advanced Audio Codec Low Complexity
Идентификатор кодека : mp4a-40-2
Продолжительность : 1 ч. 55 м.
Вид битрейта : Переменный
Битрейт : 231 Кбит/сек
Максимальный битрейт : 398 Кбит/сек
Каналы : 2 канала
Channel layout : L R
Частота : 48,0 КГц
Частота кадров : 46,875 кадров/сек (1024 SPF)
Метод сжатия : С потерями
Размер потока : 190 Мбайт (2%)
Язык : French
Default : Нет
Alternate group : 1
Дата кодирования : UTC 2020-03-11 11:29:50
Дата пометки : UTC 2020-03-11 11:38:01
Fallback From : 7
tagc : public.main-program-content

Аудио #4
Идентификатор : 5
Формат : AC-3
Формат/Информация : Audio Coding 3
Коммерческое название : Dolby Digital
Идентификатор кодека : ac-3
Продолжительность : 1 ч. 54 м.
Вид битрейта : Постоянный
Битрейт : 384 Кбит/сек
Каналы : 6 каналов
Channel layout : L R C LFE Ls Rs
Частота : 48,0 КГц
Частота кадров : 31,250 кадров/сек (1536 SPF)
Метод сжатия : С потерями
Размер потока : 316 Мбайт (4%)
Язык : Russian
Service kind : Complete Main
Default : Inherited From: 2
Alternate group : 1
Дата кодирования : UTC 2020-03-11 11:29:50
Дата пометки : UTC 2020-03-11 11:38:01
Fallback To : 2
tagc : public.main-program-content

Аудио #5
Идентификатор : 6
Формат : AC-3
Формат/Информация : Audio Coding 3
Коммерческое название : Dolby Digital
Идентификатор кодека : ac-3
Продолжительность : 1 ч. 54 м.
Вид битрейта : Постоянный
Битрейт : 384 Кбит/сек
Каналы : 6 каналов
Channel layout : L R C LFE Ls Rs
Частота : 48,0 КГц
Частота кадров : 31,250 кадров/сек (1536 SPF)
Метод сжатия : С потерями
Размер потока : 316 Мбайт (4%)
Язык : Ukrainian
Service kind : Complete Main
Default : Нет
Alternate group : 1
Дата кодирования : UTC 2020-03-11 11:29:50
Дата пометки : UTC 2020-03-11 11:38:01
Fallback To : 3
tagc : public.main-program-content

Аудио #6
Идентификатор : 7
Формат : AC-3
Формат/Информация : Audio Coding 3
Коммерческое название : Dolby Digital
Идентификатор кодека : ac-3
Продолжительность : 1 ч. 55 м.
Вид битрейта : Постоянный
Битрейт : 640 Кбит/сек
Каналы : 6 каналов
Channel layout : L R C LFE Ls Rs
Частота : 48,0 КГц
Частота кадров : 31,250 кадров/сек (1536 SPF)
Метод сжатия : С потерями
Размер потока : 526 Мбайт (6%)
Язык : French
Service kind : Complete Main
Default : Нет
Alternate group : 1
Дата кодирования : UTC 2020-03-11 11:29:50
Дата пометки : UTC 2020-03-11 11:38:01
Fallback To : 4
tagc : public.main-program-content

Текст #1
Идентификатор : 8
Формат : Timed Text
Режим смешивания : sbtl
Идентификатор кодека : tx3g
Продолжительность : 1 ч. 51 м.
Вид битрейта : Переменный
Битрейт : 121 бит/сек
Размер потока : 98,1 Кбайт (0%)
Язык : Russian
Default : Да
Forced : Нет
Alternate group : 2
Дата кодирования : UTC 2020-03-11 11:29:50
Дата пометки : UTC 2020-03-11 11:38:01
tagc : public.main-program-content

Текст #2
Идентификатор : 9
Формат : Timed Text
Режим смешивания : sbtl
Идентификатор кодека : tx3g
Продолжительность : 1 ч. 54 м.
Вид битрейта : Переменный
Битрейт : 80 бит/сек
Размер потока : 67,7 Кбайт (0%)
Язык : French
Default : Нет
Forced : Нет
Alternate group : 2
Дата кодирования : UTC 2020-03-11 11:29:50
Дата пометки : UTC 2020-03-11 11:38:01
tagc : public.main-program-content

Меню
Идентификатор : 10
Идентификатор кодека : text
Продолжительность : 1 ч. 55 м.
Язык : English
Дата кодирования : UTC 2020-03-11 11:38:01
Дата пометки : UTC 2020-03-11 11:38:01
Вид битрейта : CBR
Menu For : 1
00:00:00.000 : Chapter 01
00:08:09.375 : Chapter 02
00:19:41.000 : Chapter 03
00:27:14.667 : Chapter 04
00:35:17.792 : Chapter 05
00:51:38.750 : Chapter 06
01:00:39.750 : Chapter 07
01:08:56.917 : Chapter 08
01:17:29.500 : Chapter 09
01:25:42.667 : Chapter 10
01:35:14.417 : Chapter 11
01:46:47.708 : Chapter 12
Вид битрейта : Постоянный


Name: Прекрасная эпоха
Artist: Николя Бедос
Media Kind: Movie
HD Video: 720p
Genre: Драма
Release Date: 2019-11-28T08:00:00Z
Long Description: Что если бы вы могли отправиться в любое время в прошлом по своему выбору? Именно такую услугу предоставляет компания, которая готова скрупулёзно восстановить детали любой эпохи на заказ. Одним из ее клиентов становится талантливый художник, переживающий кризис в отношениях со своей любимой женой. Он использует этот шанс, чтобы снова пережить тот день, когда много лет назад он встретил любовь всей своей жизни.
Rating: ru-movie|18+|400|
Studio: Les Films du Kiosque
Cast: Даниель Отой, Гийом Кане, Дория Тилье, Фанни Ардан
Director: Николя Бедос
Producers: Мартин Мец
Screenwriters: Николя Бедос
Copyright: © 2019 Volga Film
content ID: 1498319118
iTunes Country: 143469

Скриншоты:


Все одноименные релизы в Клубе
Время раздачи: 24/7 (до появления первых 3-5 скачавших)

Релиз подготовлен для просмотра на Apple TV, iPad, iPhone, iPod Touch.
Для просмотра данного релиза на компьютере с ОС Windows рекомендуется использовать VLC media player
[NNMClub.to]_La.Belle.Epoque.2019.BDRip.720p.m4v.torrent
 Торрент: Золотая раздача  Зарегистрирован
 
Зарегистрируйтесь и скачайте торрент!
84,2 KB
Free Leech
Примагнититься
 Зарегистрирован:   11 Мар 2020 14:52:11
 Размер:   8,4 GB  (
 Рейтинг:   4,9 (Голосов: 14)
 Поблагодарили:   64
 Проверка:   Оформление проверено модератором 11 Мар 2020 15:22:23
Как cкачать  ·  Как раздать  ·  Правильно оформить  ·  Поднять ратио!  

_________________
«Всё против нас, только ветер навстречу…».
🍏Apple iMac 21.5 (mid 2011) / Intel Core i5 2.7 GHz / AMD Radeon HD 6770M 512 Mb / 12GB DDR3 / Apple Trackpad, Apple Keyboard / macOS High Sierra 10.13.6 (17G12034)
Весельчак У ®
Модератор Apple
Стаж: 6 лет 3 мес.
Сообщений: 5259
Ratio: 148,188
Поблагодарили: 171431
93.94%
Откуда: От Москвы недалеко...
ussr.gif
Отличный фильм, французы, как всегда, на высоте.

_________________
«Всё против нас, только ветер навстречу…».
🍏Apple iMac 21.5 (mid 2011) / Intel Core i5 2.7 GHz / AMD Radeon HD 6770M 512 Mb / 12GB DDR3 / Apple Trackpad, Apple Keyboard / macOS High Sierra 10.13.6 (17G12034)
McGordon
Стаж: 9 лет 4 мес.
Сообщений: 206
Ratio: 31,038
100%
Откуда: Санкт-Петербург
russia.gif
Да, фильм замечательный.

_________________
"Всё есть во всём, и наоборот!"
Козьма Прутков.
sokol193
Стаж: 9 лет 6 мес.
Сообщений: 1160
Ratio: 1,353
Раздал: 1,331 TB
100%
замечательная душевная киношка, отлично зашла - смотрел не отрываясь, французы показали высший класс... :выпивают: :супер!:
Показать сообщения:   
Начать новую тему   Ответить на тему    Торрент-трекер NNM-Club -> Аудио и Видео -> Зарубежное видео HD для устройств Apple Часовой пояс: GMT + 3
Страница 1 из 1