Классический форум-трекер
canvas not supported
Нас вместе: 4 104 718

WebForMySelf | Фреймворк Yii2 (2020) [unpacked]


 
 
RSS
Начать новую тему   Ответить на тему    Торрент-трекер NNM-Club -> Мультимедийные материалы -> Компьютеры
Автор Сообщение
DepictWeb ®
Стаж: 9 лет 8 мес.
Сообщений: 753
Ratio: 95,942
Раздал: 7,369 TB
Поблагодарили: 94211
100%
pirates.png
WebForMySelf | Фреймворк Yii2 (2020) [unpacked]
Автор (издатель): WebForMySelf, Кудлай Андрей
Жанр: Программирование, PHP, Yii2

Системные требования:
• операционная система Windows 2000/XP/Vista/7/8.1/10
• процессор 800 MHz
• оперативная память 512 МБ
• звуковая карта (можно встроенную в материнскую плату)
• видеокарта (можно встроенную в материнскую плату)


Формат: unpacked

Описание:
В предлагаемом курсе показываются возможности работы с фреймворком Yii2, а также показано создание сайта современного интернет-магазина на РНР с базовым функционалом.

Продолжительность: 22:28:39
Качество видео: PCRec

Видео: AVC/H.264, 1280x720, ~78-671 Kbps
Аудио: AAC, 2 ch, 124-125 Kbps

Общее
Полное имя : .\videokurs\part2\14.mp4
Формат : MPEG-4
Профиль формата : Base Media / Version 2
Идентификатор кодека : mp42 (isom/mp42)
Размер файла : 76,6 Мбайт
Продолжительность : 20 м. 9 с.
Режим общего битрейта : Переменный
Общий поток : 532 Кбит/сек
Дата кодирования : UTC 2020-01-23 15:19:48
Дата пометки : UTC 2020-01-23 15:19:48

Видео
Идентификатор : 1
Формат : AVC
Формат/Информация : Advanced Video Codec
Профиль формата : Baseline@L3.1
Настройки формата : 3 Ref Frames
Параметр CABAC формата : Нет
Параметр RefFrames формата : 3 кадра
Идентификатор кодека : avc1
Идентификатор кодека/Информация : Advanced Video Coding
Продолжительность : 20 м. 9 с.
Битрейт : 403 Кбит/сек
Ширина : 1280 пикселей
Высота : 720 пикселей
Соотношение сторон : 16:9
Режим частоты кадров : Постоянный
Частота кадров : 30,000 кадров/сек
Стандарт вещания : NTSC
Цветовое пространство : YUV
Субдискретизация насыщенности : 4:2:0
Битовая глубина : 8 бит
Тип развёртки : Прогрессивная
Бит/(Пиксели*Кадры) : 0.015
Размер потока : 58,1 Мбайт (76%)
Язык : English
Дата кодирования : UTC 2020-01-23 15:19:49
Дата пометки : UTC 2020-01-23 15:19:49
Цветовой диапазон : Limited
Codec configuration box : avcC

Аудио
Идентификатор : 2
Формат : AAC LC
Формат/Информация : Advanced Audio Codec Low Complexity
Идентификатор кодека : mp4a-40-2
Продолжительность : 20 м. 9 с.
Вид битрейта : Переменный
Битрейт : 126 Кбит/сек
Максимальный битрейт : 293 Кбит/сек
Каналы : 2 канала
ChannelLayout : L R
Частота : 44,1 КГц
Частота кадров : 43,066 кадра/сек (1024 SPF)
Метод сжатия : С потерями
Размер потока : 18,1 Мбайт (24%)
Язык : English
Дата кодирования : UTC 2020-01-23 15:19:49
Дата пометки : UTC 2020-01-23 15:19:49
В раздаче имеются архивы! В них содержится дополнительные материалы.
Скриншоты:


Время раздачи: 24/7 (круглосуточно) (до появления первых 3-5 скачавших)
[NNMClub.to]_[WebForMySelf] [Kudlay Andrey] Freymvork Yii2 (2020).torrent
 Торрент:   Зарегистрирован
 
Зарегистрируйтесь и скачайте торрент!
208 KB
Free Leech
Примагнититься
 Зарегистрирован:   12 Мар 2020 22:24:46
 Размер:   9,12 GB  (
 Рейтинг:   4,9 (Голосов: 40)
 Поблагодарили:   138
 Проверка:   Оформление проверено модератором 13 Мар 2020 09:23:26
Поддержка релизов - https://www.donationalerts.ru/r/waffle_crap
Как cкачать  ·  Как раздать  ·  Правильно оформить  ·  Поднять ратио!  
semsev
Стаж: 6 лет 3 мес.
Сообщений: 33
Ratio: 29,291
0.83%
Спасибо Огромное
vikz1974
Стаж: 10 лет 1 мес.
Сообщений: 48
Ratio: 69,767
Поблагодарили: 8
100%
russia.gif
Подмогну с раздачей
Alex0066
Стаж: 9 лет 2 мес.
Сообщений: 32
Ratio: 4,226
0.14%
belarus.gif
Спасибо.
vpikul5
Стаж: 1 год 11 мес.
Сообщений: 167
Ratio: 0,356
100%
norway.gif
Лучше бы снимали про laravel - это актуально, а yii - это для бывшего совка, кроме бывшего совка им никто не пользуется. Есть реальность а есть выдумки. Реальность - она сурова, но реальна: laravel.
savsoft
Стаж: 8 лет 10 мес.
Сообщений: 1090
Ratio: 1,185
51.03%
vpikul5 писал(а): Перейти к сообщению
Лучше бы снимали про laravel - это актуально, а yii - это для бывшего совка, кроме бывшего совка им никто не пользуется. Есть реальность а есть выдумки. Реальность - она сурова, но реальна: laravel.


А вам что мешает?

А в реальности, не вашей, а реальной, yii точно входит в 5 - 7. Или по вашему снимать нужно только по самому первому?
vpikul5
Стаж: 1 год 11 мес.
Сообщений: 167
Ratio: 0,356
100%
norway.gif
savsoft писал(а): Перейти к сообщению

А в реальности, не вашей, а реальной, yii точно входит в 5 - 7. Или по вашему снимать нужно только по самому первому?


Да, я живу за границей и работаю программистом, могу сказать за Сингапур, Таиланд, Малайзию, Дубай - нужны знания по ТОП фреймворкам, по какаим - я уже написал. Про Yii тут не слышали. Это не в обиду - просто всем школам нужно держать руку на пульсе и мониторить тренды. Ведь учат студентов для того чтобы они потом могли успешно работать.
5paun
Стаж: 8 лет 11 мес.
Сообщений: 29
Ratio: 1,049
0%
Добрый день. Товарищи, на сколько сильно данный курс отличается от этого?
Андрей Кудлай | Фреймворк YII2 с Нуля до Профи (2016) PCRec [H.264/720p]
Или они взаимодополняющие? Или лучше на старьё не стоит тратить время?
Заранее Благодарю за советы!
semsev
Стаж: 6 лет 3 мес.
Сообщений: 33
Ratio: 29,291
0.83%
5paun писал(а): Перейти к сообщению
Добрый день. Товарищи, на сколько сильно данный курс отличается от этого?
Андрей Кудлай | Фреймворк YII2 с Нуля до Профи (2016) PCRec [H.264/720p]
Или они взаимодополняющие? Или лучше на старьё не стоит тратить время?
Заранее Благодарю за советы!


тоже самое но в другой обертке кое-что новое добавлено
apparattt
Стаж: 12 лет 1 мес.
Сообщений: 22
Ratio: 0,904
5.25%
ukraine.gif
Цитата:
Да, я живу за границей и работаю программистом, могу сказать за Сингапур, Таиланд, Малайзию, Дубай - нужны знания по ТОП фреймворкам, по какаим - я уже написал. Про Yii тут не слышали. Это не в обиду - просто всем школам нужно держать руку на пульсе и мониторить тренды. Ведь учат студентов для того чтобы они потом могли успешно работать.


Такой крутой заграничный программист, и шаришься по торрентам в поисках халявы..
Недопрограмист
Показать сообщения:   
Начать новую тему   Ответить на тему    Торрент-трекер NNM-Club -> Мультимедийные материалы -> Компьютеры Часовой пояс: GMT + 3
Страница 1 из 1