Классический форум-трекер
canvas not supported
Нас вместе: 4 102 102

Преследование по пятам / Hot Pursuit (1987) WEB-DL [1080p] ATV [AVO]


 
 
RSS
Начать новую тему   Ответить на тему    Торрент-трекер NNM-Club -> Аудио и Видео -> Зарубежное видео HD для устройств Apple
Автор Сообщение
Весельчак У ®
Модератор Apple
Стаж: 6 лет 3 мес.
Сообщений: 5259
Ratio: 148,254
Поблагодарили: 171599
93.94%
Откуда: От Москвы недалеко...
ussr.gif
Преследование по пятам / Hot Pursuit (1987) WEB-DL [1080p] ATV«She promised him ten days together in paradise. He never dreamed how far he'd have to go»
Производство: США / Мексика, Interaccess Film Distribution, RKO Pictures
Жанр: Комедия, приключения

Режиссер: Стивен Лисбергер
Продюсер: Пьер Дэвид, Теодор Р. Парвин, Том Манкевич
Актеры: Джон Кьюсак, Роберт Лоджа, Джерри Стиллер, Венди Газелль, Монте Маркэм, Шелли Фабарес, Бен Стиллер, Кит Дэвид, Пол Бейтс, Мигель Анхел Фуэнтес

Описание:
Дэн опаздывает на самолет, на котором должен был отправиться в романтическое путешествие со своей очаровательной подругой Лори. Но неунывающий, всегда готовый к самым пакостным превратностям судьбы Дэн бросается вдогонку. Правда, цепь неудач продолжается и в течение ближайших дней ему предстоит заблудиться в карибских джунглях, поиметь близкие контакты необузданного вида с чувственной островитянкой, пережить кораблекрушение и оказаться в разгар тропического урагана за бортом на милость загадочного незнакомца, только что сбежавшего из тюрьмы, сорвать попытку похищения с целью выкупа, а заодно и сразиться с бандой негодяев, задумавших убить Лори и ее семью. Да, вот это каникулы!


Возраст: 12+ (зрителям, достигшим 12 лет)
Рейтинг MPAA: PG-13 (детям до 13 лет просмотр нежелателен)

Релиз от: NNMClub

Продолжительность: 01:32:29
Качество видео: WEB-DL 1080р
Перевод: Авторский одноголосый
Субтитры: Английские (SDH)

Видео: H.264, 1920x1080 (16:9), ~14,6 Mbps, 23.976 fps
Аудио#1: AAC, 2 ch, 170 Kbps - Русский AVO, Павел Санаев
Аудио#2: AAC, 2 ch, 230 Kbps - English Original

Общее
Полное имя : /Volumes/HDD/Movies/NNMC/Hot.Pursuit.1987.WEB-DL.1080p.m4v
Формат : MPEG-4
Идентификатор кодека : M4V (M4V /M4A /mp42/isom)
Размер файла : 9,72 Гбайт
Продолжительность : 1 ч. 32 м.
Режим общего битрейта : Переменный
Общий поток : 15,0 Мбит/сек
Название фильма : Преследование по пятам
Исполнитель : Steven Lisberger
Режиссёр : Steven Lisberger
Исполнитель : John Cusack / Robert Loggia / Jerry Stiller / Wendy Gazelle / Monte Markham / Shelley Fabares / Paul Bates / Keith David / Martin LaSalle / Ben Stiller / Ursaline Bryant / Terence Cooper / Dah-ve Chodan / Andaluz Russell / Ted White / Roberto Sneider
Сценарист : Steven Lisberger / Steven W. Carabatsos
Продюсер : Pierre David / Theodore R. Parvin
Исполнительный продюсер : Tom Mankiewicz, Jerry Offsay
Студия-производитель : Paramount, RKO Radio Pictures
Жанр : комедия
Тип содержимого : Short Film
Дата записи : UTC 1987-05-08 12:00:00
Дата кодирования : UTC 2020-03-17 14:20:03
Дата пометки : UTC 2020-03-17 14:40:49
Обложка : Yes
LongDescription : Дэн опаздывает на самолет, на котором должен был отправиться в романтическое путешествие со своей очаровательной подругой Лори. Но неунывающий, всегда готовый к самым пакостным превратностям судьбы Дэн бросается вдогонку. Правда, цепь неудач продолжается и в течение ближайших дней ему предстоит заблудиться в карибских джунглях, поиметь близкие контакты необузданного вида с чувственной островитянкой, пережить кораблекрушение и оказаться в разгар тропического урагана за бортом на милость загадочного незнакомца, только что сбежавшего из тюрьмы, сорвать попытку похищения с целью выкупа, а заодно и сразиться с бандой негодяев, задумавших убить Лори и ее семью. Да, вот это каникулы!
ContentRating : mpaa|PG-13|300|

Видео #1
Идентификатор : 1
Формат : AVC
Формат/Информация : Advanced Video Codec
Профиль формата : High@L4
Настройки формата : CABAC / 4 Ref Frames
Параметр CABAC формата : Да
Параметр ReFrames формата : 4 кадра
Идентификатор кодека : avc1
Идентификатор кодека/Информация : Advanced Video Coding
Продолжительность : 1 ч. 32 м.
Вид битрейта : Переменный
Битрейт : 14,6 Мбит/сек
Максимальный битрейт : 15,0 Мбит/сек
Ширина : 1920 пикселей
Высота : 1080 пикселей
Соотношение сторон : 16:9
Режим частоты кадров : Переменный
Частота кадров : 23,976 (24000/1001) кадра/сек
Минимальная частота кадров : 23,810 кадра/сек
Максимальная частота кадров : 24,390 кадра/сек
Цветовое пространство : YUV
Субдискретизация насыщенности : 4:2:0
Битовая глубина : 8 бит
Тип развёртки : Прогрессивная
Бит/(Пиксели*Кадры) : 0.294
Размер потока : 9,45 Гбайт (97%)
Библиотека кодирования : x264 core 148 r2623 d5b2374
Настройки программы : cabac=1 / ref=4 / deblock=1:-1:-1 / analyse=0x3:0x133 / me=umh / subme=9 / psy=1 / psy_rd=1.00:0.15 / mixed_ref=1 / me_range=24 / chroma_me=1 / trellis=2 / 8x8dct=1 / cqm=0 / deadzone=21,11 / fast_pskip=1 / chroma_qp_offset=-3 / threads=34 / lookahead_threads=5 / sliced_threads=0 / nr=150 / decimate=1 / interlaced=0 / bluray_compat=0 / constrained_intra=0 / bframes=8 / b_pyramid=2 / b_adapt=2 / b_bias=0 / direct=3 / weightb=1 / open_gop=0 / weightp=2 / keyint=120 / keyint_min=61 / scenecut=0 / intra_refresh=0 / rc_lookahead=120 / rc=crf / mbtree=1 / crf=18.0 / qcomp=0.60 / qpmin=0 / qpmax=69 / qpstep=4 / vbv_maxrate=15000 / vbv_bufsize=31250 / crf_max=0.0 / nal_hrd=vbr / filler=0 / ip_ratio=1.40 / aq=3:1.00
Язык : English
Дата кодирования : UTC 2020-03-17 14:20:03
Дата пометки : UTC 2020-03-17 14:40:31
Цветовой диапазон : Limited
Основные цвета : BT.709
Характеристики трансфера : BT.709
Коэффициенты матрицы : BT.709
Menus : 6,7
Codec configuration box : avcC

Видео #2
Идентификатор : 7
Формат : JPEG
Идентификатор кодека : jpeg
Продолжительность : 1 ч. 32 м.
Вид битрейта : Переменный
Битрейт : 1179 бит/сек
Ширина : 640 пикселей
Высота : 360 пикселей
Соотношение сторон : 16:9
Режим частоты кадров : Переменный
Частота кадров : 0,003 кадр/сек
Минимальная частота кадров : 0,002 кадр/сек
Максимальная частота кадров : 0,004 кадр/сек
Цветовое пространство : YUV
Субдискретизация насыщенности : 4:2:0
Битовая глубина : 8 бит
Метод сжатия : С потерями
Бит/(Пиксели*Кадры) : 1.706
Размер потока : 671 Кбайт (0%)
Язык : English
Default : Нет
Дата кодирования : UTC 2020-03-17 14:40:48
Дата пометки : UTC 2020-03-17 14:40:49
Menu For : 1
ColorSpace_ICC : RGB

Аудио #1
Идентификатор : 2
Формат : AAC LC
Формат/Информация : Advanced Audio Codec Low Complexity
Идентификатор кодека : mp4a-40-2
Продолжительность : 1 ч. 32 м.
Вид битрейта : Переменный
Битрейт : 170 Кбит/сек
Максимальный битрейт : 357 Кбит/сек
Каналы : 2 канала
Channel layout : L R
Частота : 48,0 КГц
Частота кадров : 46,875 кадров/сек (1024 SPF)
Метод сжатия : С потерями
Размер потока : 112 Мбайт (1%)
Язык : Russian
Default : Да
Alternate group : 1
Дата кодирования : UTC 2020-03-17 14:20:03
Дата пометки : UTC 2020-03-17 14:40:31
tagc : public.main-program-content

Аудио #2
Идентификатор : 3
Формат : AAC LC
Формат/Информация : Advanced Audio Codec Low Complexity
Идентификатор кодека : mp4a-40-2
Продолжительность : 1 ч. 32 м.
Продолжительность оригинала : 1 ч. 32 м.
Вид битрейта : Переменный
Битрейт : 230 Кбит/сек
Максимальный битрейт : 407 Кбит/сек
Каналы : 2 канала
Channel layout : L R
Частота : 48,0 КГц
Частота кадров : 46,875 кадров/сек (1024 SPF)
Метод сжатия : С потерями
Размер потока : 152 Мбайт (2%)
Размер потока оригинала : 152 Мбайт (2%)
Язык : English
Default : Нет
Alternate group : 1
Дата кодирования : UTC 2020-03-17 14:20:03
Дата пометки : UTC 2020-03-17 14:21:43
tagc : public.main-program-content

Текст #1
Идентификатор : 4
Формат : Timed Text
Режим смешивания : sbtl
Идентификатор кодека : tx3g
Продолжительность : 1 ч. 29 м.
Вид битрейта : Переменный
Битрейт : 63 бит/сек
Размер потока : 41,3 Кбайт (0%)
Язык : English
Default : Да
Forced : Нет
Alternate group : 2
Дата кодирования : UTC 2020-03-17 14:20:03
Дата пометки : UTC 2020-03-17 14:40:31
tagc : public.main-program-content

Текст #2
Идентификатор : 5
Формат : Timed Text
Режим смешивания : sbtl
Идентификатор кодека : tx3g
Продолжительность : 1 ч. 32 м.
Вид битрейта : Переменный
Битрейт : 68 бит/сек
Размер потока : 46,1 Кбайт (0%)
Язык : English
Default : Нет
Forced : Нет
Alternate group : 2
Дата кодирования : UTC 2020-03-17 14:20:03
Дата пометки : UTC 2020-03-17 14:40:31
tagc : public.accessibility.transcribes-spoken-dialog

Меню
Идентификатор : 6
Идентификатор кодека : text
Продолжительность : 1 ч. 32 м.
Язык : English
Дата кодирования : UTC 2020-03-17 14:40:31
Дата пометки : UTC 2020-03-17 14:40:31
Menu For : 1
00:00:00.000 : Trying to Study
00:08:04.000 : Good at Chemistry
00:16:34.000 : The Wrong Ride
00:25:41.000 : Dan's Friends
00:32:37.000 : Crystal Slipper
00:38:03.000 : Guns And Knives
00:46:37.000 : Sailing Through A Storm
00:54:00.000 : Dan Jumps Ship
00:59:44.000 : Thrown In Jail
01:06:01.000 : Democracy
01:11:36.000 : Danger For The Cronenbergs
01:15:36.000 : Discovering Smugglers
01:20:46.000 : The Boyfriend Saves The Day
01:26:56.000 : Reward


Name: Преследование по пятам
Artist: Steven Lisberger
Media Kind: Movie
HD Video: 1080p
Genre: комедия
Release Date: 1987-05-08T12:00:00Z
Long Description: Дэн опаздывает на самолет, на котором должен был отправиться в романтическое путешествие со своей очаровательной подругой Лори. Но неунывающий, всегда готовый к самым пакостным превратностям судьбы Дэн бросается вдогонку. Правда, цепь неудач продолжается и в течение ближайших дней ему предстоит заблудиться в карибских джунглях, поиметь близкие контакты необузданного вида с чувственной островитянкой, пережить кораблекрушение и оказаться в разгар тропического урагана за бортом на милость загадочного незнакомца, только что сбежавшего из тюрьмы, сорвать попытку похищения с целью выкупа, а заодно и сразиться с бандой негодяев, задумавших убить Лори и ее семью. Да, вот это каникулы!
Rating: mpaa|PG-13|300|
Studio: Paramount, RKO Radio Pictures
Cast: John Cusack, Robert Loggia, Jerry Stiller, Wendy Gazelle, Monte Markham, Shelley Fabares, Paul Bates, Keith David, Martin LaSalle, Ben Stiller, Ursaline Bryant, Terence Cooper, Dah-ve Chodan, Andaluz Russell, Ted White, Roberto Sneider
Director: Steven Lisberger
Producers: Pierre David, Theodore R. Parvin
Executive Producer: Tom Mankiewicz, Jerry Offsay
Screenwriters: Steven Lisberger, Steven W. Carabatsos

Скриншоты:


Все одноименные релизы в Клубе
Время раздачи: 24/7 (до появления первых 3-5 скачавших)

Релиз подготовлен для просмотра на Apple TV, iPad, iPhone, iPod Touch.
Для просмотра данного релиза на компьютере с ОС Windows рекомендуется использовать VLC media player
[NNMClub.to]_Hot.Pursuit.1987.WEB-DL.1080p.m4v.torrent
 Торрент: Платиновая раздача  Зарегистрирован
 
Скачать


Примагнититься
 Зарегистрирован:   17 Мар 2020 18:18:19
 Размер:   9,72 GB  (
 Рейтинг:    (Голосов: 7)
 Поблагодарили:   37
 Проверка:   Оформление проверено модератором 17 Мар 2020 18:49:57
Как cкачать  ·  Как раздать  ·  Правильно оформить  ·  Поднять ратио!  

_________________
«Всё против нас, только ветер навстречу…».
🍏Apple iMac 21.5 (mid 2011) / Intel Core i5 2.7 GHz / AMD Radeon HD 6770M 512 Mb / 12GB DDR3 / Apple Trackpad, Apple Keyboard / macOS High Sierra 10.13.6 (17G12034)
Показать сообщения:   
Начать новую тему   Ответить на тему    Торрент-трекер NNM-Club -> Аудио и Видео -> Зарубежное видео HD для устройств Apple Часовой пояс: GMT + 3
Страница 1 из 1