Классический форум-трекер
canvas not supported
Нас вместе: 4 102 845

Приказ «Уничтожить» / Секретное оружие (2019) BDRip [1080p] ATV


 
 
RSS
Начать новую тему   Ответить на тему    Торрент-трекер NNM-Club -> Аудио и Видео -> Отечественное видео HD для устройств Apple
Автор Сообщение
Весельчак У ®
Модератор Apple
Стаж: 6 лет 3 мес.
Сообщений: 5277
Ratio: 149,018
Поблагодарили: 172120
94.12%
Откуда: От Москвы недалеко...
ussr.gif
Приказ «Уничтожить» / Секретное оружие (2019) BDRip [1080p] ATV
Производство: Россия / Mars Media Sales
Жанр: Военный, драма

Режиссер: Константин Статский
Продюсер: Рубен Дишдишян
Актеры: Александр Устюгов, Тимофей Трибунцев, Анатолий Гущин, Евгений Антропов, Поля Полякова, Азамат Нигманов, Надежда Анципович, Александр Ефрем

Описание:
Великая Отечественная Война. Красная Армия отступает и в спешке не успевает уничтожить сверхсекретное оружие - «Катюшу». Во вражеский тыл отправляется группа из 8 диверсантов. Им нужно сделать все возможное, чтобы установка не попала в руки немцев.


Возраст: 12+ (зрителям, достигшим 12 лет)
Дата российской премьеры: 1 января 2019

Релиз от: NNMClub

Продолжительность: 01:34:32
Качество видео: BDRip 1080р
Перевод: Не требуется, русский (GER Transfer, Лицензия)
Субтитры: Отсутствуют

Видео: H.264, 1920x1080 (16:9), ~8836 kbps, 25.000 fps
Аудио#1: AAC, 2 ch, 233 Kbps - Русский
Аудио#2: AC3, 6 ch, 640 Kbps - Русский

Общее
Полное имя : /Volumes/HDD/Movies/NNMC/Sekretnoe.oruzhie.2019.BDRip.1080p.m4v
Формат : MPEG-4
Идентификатор кодека : M4V (M4V /M4A /mp42/isom)
Размер файла : 6,42 Гбайт
Продолжительность : 1 ч. 34 м.
Режим общего битрейта : Переменный
Общий поток : 9718 Кбит/сек
Название фильма : Sekretnoe oruzhie
Исполнитель : Kostya Stat
Режиссёр : Kostya Stat
Исполнитель : Aleksandr Ustyugov
Сценарист : Kostya Stat
Студия-производитель : Meteor Film
Жанр : военный
Тип содержимого : Short Film
Дата записи : UTC 2019-01-01 12:00:00
Дата кодирования : UTC 2020-03-18 07:03:26
Дата пометки : UTC 2020-03-18 07:06:42
Обложка : Yes

Видео #1
Идентификатор : 1
Формат : AVC
Формат/Информация : Advanced Video Codec
Профиль формата : High@L4.1
Настройки формата : CABAC / 4 Ref Frames
Параметр CABAC формата : Да
Параметр ReFrames формата : 4 кадра
Идентификатор кодека : avc1
Идентификатор кодека/Информация : Advanced Video Coding
Продолжительность : 1 ч. 34 м.
Битрейт : 8836 Кбит/сек
Ширина : 1920 пикселей
Высота : 1080 пикселей
Соотношение сторон : 16:9
Режим частоты кадров : Постоянный
Частота кадров : 25,000 кадров/сек
Цветовое пространство : YUV
Субдискретизация насыщенности : 4:2:0
Битовая глубина : 8 бит
Тип развёртки : Прогрессивная
Бит/(Пиксели*Кадры) : 0.170
Размер потока : 5,84 Гбайт (91%)
Библиотека кодирования : x264 core 146 r2538 121396c
Настройки программы : cabac=1 / ref=4 / deblock=1:-3:-3 / analyse=0x3:0x133 / me=umh / subme=11 / psy=1 / psy_rd=0.95:0.05 / mixed_ref=1 / me_range=64 / chroma_me=1 / trellis=2 / 8x8dct=1 / cqm=0 / deadzone=21,11 / fast_pskip=0 / chroma_qp_offset=-3 / threads=12 / lookahead_threads=3 / sliced_threads=0 / nr=0 / decimate=0 / interlaced=0 / bluray_compat=0 / constrained_intra=0 / bframes=10 / b_pyramid=2 / b_adapt=2 / b_bias=0 / direct=3 / weightb=1 / open_gop=0 / weightp=2 / keyint=250 / keyint_min=25 / scenecut=40 / intra_refresh=0 / rc_lookahead=40 / rc=2pass / mbtree=0 / bitrate=8836 / ratetol=1.0 / qcomp=0.60 / qpmin=0 / qpmax=69 / qpstep=4 / cplxblur=20.0 / qblur=0.5 / vbv_maxrate=50000 / vbv_bufsize=62500 / nal_hrd=none / filler=0 / ip_ratio=1.40 / pb_ratio=1.30 / aq=1:1.00
Язык : English
Дата кодирования : UTC 2020-03-18 07:03:26
Дата пометки : UTC 2020-03-18 07:06:25
Menus : 4,5
Codec configuration box : avcC

Видео #2
Идентификатор : 5
Формат : JPEG
Идентификатор кодека : jpeg
Продолжительность : 1 ч. 34 м.
Вид битрейта : Переменный
Битрейт : 1157 бит/сек
Ширина : 640 пикселей
Высота : 360 пикселей
Соотношение сторон : 16:9
Режим частоты кадров : Переменный
Частота кадров : 0,003 кадр/сек
Минимальная частота кадров : 0,001 кадр/сек
Максимальная частота кадров : 3,571 кадра/сек
Цветовое пространство : YUV
Субдискретизация насыщенности : 4:2:0
Битовая глубина : 8 бит
Метод сжатия : С потерями
Бит/(Пиксели*Кадры) : 1.674
Размер потока : 801 Кбайт (0%)
Язык : English
Default : Нет
Дата кодирования : UTC 2020-03-18 07:06:42
Дата пометки : UTC 2020-03-18 07:06:42
Menu For : 1
ColorSpace_ICC : RGB

Аудио #1
Идентификатор : 2
Формат : AAC LC
Формат/Информация : Advanced Audio Codec Low Complexity
Идентификатор кодека : mp4a-40-2
Продолжительность : 1 ч. 34 м.
Вид битрейта : Переменный
Битрейт : 233 Кбит/сек
Максимальный битрейт : 405 Кбит/сек
Каналы : 2 канала
Channel layout : L R
Частота : 48,0 КГц
Частота кадров : 46,875 кадров/сек (1024 SPF)
Метод сжатия : С потерями
Размер потока : 158 Мбайт (2%)
Язык : Russian
Default : Да
Alternate group : 1
Дата кодирования : UTC 2020-03-18 07:03:26
Дата пометки : UTC 2020-03-18 07:06:25
Fallback From : 3
tagc : public.main-program-content

Аудио #2
Идентификатор : 3
Формат : AC-3
Формат/Информация : Audio Coding 3
Коммерческое название : Dolby Digital
Идентификатор кодека : ac-3
Продолжительность : 1 ч. 34 м.
Вид битрейта : Постоянный
Битрейт : 640 Кбит/сек
Каналы : 6 каналов
Channel layout : L R C LFE Ls Rs
Частота : 48,0 КГц
Частота кадров : 31,250 кадров/сек (1536 SPF)
Метод сжатия : С потерями
Размер потока : 433 Мбайт (7%)
Язык : Russian
Service kind : Complete Main
Default : Inherited From: 2
Alternate group : 1
Дата кодирования : UTC 2020-03-18 07:03:26
Дата пометки : UTC 2020-03-18 07:06:25
Fallback To : 2
tagc : public.main-program-content

Меню
Идентификатор : 4
Идентификатор кодека : text
Продолжительность : 1 ч. 34 м.
Язык : English
Дата кодирования : UTC 2020-03-18 07:06:25
Дата пометки : UTC 2020-03-18 07:06:25
Вид битрейта : CBR
Menu For : 1
00:00:00.000 : Chapter 01
00:05:19.919 : Chapter 02
00:10:22.359 : Chapter 03
00:15:07.240 : Chapter 04
00:20:39.640 : Chapter 05
00:25:01.679 : Chapter 06
00:30:03.840 : Chapter 07
00:34:13.160 : Chapter 08
00:40:34.480 : Chapter 09
00:45:17.719 : Chapter 10
00:51:32.360 : Chapter 11
00:57:19.680 : Chapter 12
01:11:21.280 : Chapter 13
01:17:28.040 : Chapter 14
01:24:09.800 : Chapter 15
01:28:45.040 : Chapter 16
01:34:32.000 : Chapter 17
Вид битрейта : Постоянный


Name: Sekretnoe oruzhie
Artist: Kostya Stat
Media Kind: Movie
HD Video: 1080p
Genre: военный
Release Date: 2019-01-01T12:00:00Z
Studio: Meteor Film
Cast: Aleksandr Ustyugov
Director: Kostya Stat
Screenwriters: Kostya Stat

Скриншоты:


Все одноименные релизы в Клубе
Время раздачи: 24/7 (до появления первых 3-5 скачавших)

Релиз подготовлен для просмотра на Apple TV, iPad, iPhone, iPod Touch.
Для просмотра данного релиза на компьютере с ОС Windows рекомендуется использовать VLC media player
[NNMClub.to]_Sekretnoe.oruzhie.2019.BDRip.1080p.m4v.torrent
 Торрент: Платиновая раздача  Зарегистрирован
 
Скачать


Примагнититься
 Зарегистрирован:   18 Мар 2020 10:16:58
 Размер:   6,42 GB  (
 Рейтинг:   4,3 (Голосов: 29)
 Поблагодарили:   148
 Проверка:   Оформление проверено модератором 18 Мар 2020 14:01:07
Как cкачать  ·  Как раздать  ·  Правильно оформить  ·  Поднять ратио!  

_________________
«Всё против нас, только ветер навстречу…».
🍏Apple iMac 21.5 (mid 2011) / Intel Core i5 2.7 GHz / AMD Radeon HD 6770M 512 Mb / 12GB DDR3 / Apple Trackpad, Apple Keyboard / macOS High Sierra 10.13.6 (17G12034)
Показать сообщения:   
Начать новую тему   Ответить на тему    Торрент-трекер NNM-Club -> Аудио и Видео -> Отечественное видео HD для устройств Apple Часовой пояс: GMT + 3
Страница 1 из 1