Классический форум-трекер
canvas not supported
Нас вместе: 4 101 980

Первая передача на НТВ. Автомобильная передача (22.03.2020) SATRip


 
 
RSS
Начать новую тему   Ответить на тему    Торрент-трекер NNM-Club -> Документалистика и Телепередачи -> За рулем
Автор Сообщение
Катюша ®
Мне бы в небо!
Стаж: 8 лет
Сообщений: 479
Ratio: 199,527
Поблагодарили: 43927
100%
witch.png
Первая передача на НТВ. Автомобильная передача (22.03.2020) SATRip

Телекомпания: НТВ
Жанр: Автопередача

Ведущий: Алексей Куличков

Описание:
Коронавирус: на чем ездит зараза? Средства защиты в автобусах и автомобилях. По уши в маске, по локоть – а антисептике, но кому при этом по колено эта пандемия? Как некоторые автотуристы коротают карантин? Дубликат или контрафакт: кто штампует госномера и сколько времени займет получение легальных знаков?

Релиз от: -=FOX=-
Продолжительность: 00:26:32
Качество видео: SATRip

Видео: MPEG4, XviD, 720x400, 1800 Kbps
Аудио: MP3, 2 ch, 128 Kbps

Общее
Полное имя : Pervaya.peredacha.(2020.03.22).SATRip.avi
Формат : AVI
Формат/Информация : Audio Video Interleave
Размер файла : 368 Мбайт
Продолжительность : 26 м. 32 с.
Общий поток : 1938 Кбит/сек
Программа кодирования : VirtualDubMod 1.5.10.3 | www.virtualdub-fr.org || (build 2550/release)
Библиотека кодирования : VirtualDubMod build 2550/release

Видео
Идентификатор : 0
Формат : MPEG-4 Visual
Профиль формата : Advanced Simple@L5
Настройки формата : BVOP2
Параметр BVOP формата : 2
Параметр QPel формата : Нет
Параметр GMC формата : Без точки перехода
Параметр матрицы формата : Default (H.263)
Идентификатор кодека : XVID
Идентификатор кодека/Подсказка : XviD
Продолжительность : 26 м. 32 с.
Битрейт : 1800 Кбит/сек
Ширина : 720 пикселей
Высота : 400 пикселей
Соотношение сторон : 16:9
Частота кадров : 25,000 кадров/сек
Цветовое пространство : YUV
Субдискретизация насыщенности : 4:2:0
Битовая глубина : 8 бит
Тип развёртки : Прогрессивная
Метод сжатия : С потерями
Бит/(Пиксели*Кадры) : 0.250
Размер потока : 342 Мбайт (93%)
Библиотека кодирования : XviD 1.2.1 (UTC 2008-12-04)

Аудио
Идентификатор : 1
Формат : MPEG Audio
Версия формата : Version 1
Профиль формата : Layer 3
Идентификатор кодека : 55
Идентификатор кодека/Подсказка : MP3
Продолжительность : 26 м. 32 с.
Вид битрейта : Постоянный
Битрейт : 128 Кбит/сек
Каналы : 2 канала
Частота : 48,0 КГц
Частота кадров : 41,667 кадра/сек (1152 SPF)
Метод сжатия : С потерями
Размер потока : 24,3 Мбайт (7%)
Выравнивание : Соединение по промежуткам
Продолжительность промежутка : 40 мс. (1,00 видеокадр)
Время предзагрузки промежутка : 504 мс.
Библиотека кодирования : LAME3.99r
Настройки программы : -m s -V 4 -q 2 -lowpass 17 -b 128

Скриншоты:


Все одноименные релизы в Клубе
Время раздачи: 24/7. До первых 5 скачавших.
[NNMClub.to]_Pervaya.peredacha.(2020.03.22).SATRip.avi.torrent
 Торрент:   Зарегистрирован
 
Зарегистрируйтесь и скачайте торрент!
14,8 KB
Free Leech
Примагнититься
 Зарегистрирован:   22 Мар 2020 08:02:14
 Размер:   368 MB  (
 Рейтинг:    (Голосов: 9)
 Поблагодарили:   61
 Проверка:   Оформление проверено модератором 22 Мар 2020 08:07:59
Как cкачать  ·  Как раздать  ·  Правильно оформить  ·  Поднять ратио!  

_________________
С годами старые фильмы становятся все лучше, а новые - все хуже.
andrei1964
Стаж: 7 лет
Сообщений: 111
Ratio: 3,116
99.04%
а где раздача то ? или свалили все ?
dnk77242
Стаж: 9 лет
Сообщений: 2112
Ratio: 6,545
Поблагодарили: 1
100%
Откуда: Там где туточки
russia.gif
andrei1964

Да всё нормально, вроде.
Показать сообщения:   
Начать новую тему   Ответить на тему    Торрент-трекер NNM-Club -> Документалистика и Телепередачи -> За рулем Часовой пояс: GMT + 3
Страница 1 из 1