Классический форум-трекер
canvas not supported
Нас вместе: 4 102 105

Appare Ranman! / Appare-Ranman! / Небо в цвету! [2020, TV, 2 из xx] WEBRip 1080p Rus HS


 
 
RSS
Начать новую тему   Ответить на тему    Торрент-трекер NNM-Club -> Аниме разное -> Аниме хардсаб
Автор Сообщение
Ampho_DnB ®
RG Аниме
Uploader 100+
 
Стаж: 8 лет 2 мес.
Сообщений: 3825
Ratio: 360,254
Поблагодарили: 88518
100%
Откуда: Душанбе
roody.gif
Appare Ranman! / Небо в цвету!
Жанр: приключения, история, фантастика
Тип: TV-сериал
Продолжительность: 2 из xx эпизодов по 25 минут
Выпуск: c 10.04.2020
Автор: Хасимото Масакадзу
Режиссер: Хасимото Масакадзу
Производство: P.A. Works
Информационные ссылки: AniDB || World Art || MAL || ANN
Релиз подготовлен группой Jisedai
  • Тип озвучки: Трехголосая, закадровая

Описание:
Истoрия о труcливом сaмурае и oдержимом инжeнере, кoторыe в кoнце 19 вeка кaким-то зaгадoчным oбрaзом оказались в oднoй лoдкe возле берегa Америки.

В пoпытке пoднять деньжат или хотя бы заработать на дорогу обратно, они вписались в транс-континентальную гонку из Лос-Анджелеса до Нью-Йорка. А покорять просторы дикого запада они будут на самопальной паровой машине.
Качество: WEBRip | Энкод: MMWEB
Язык озвучки: Японский и Русский
Формат: MKV
Видео: x264, 1920x1080, ~1 442 kbps, 23.976 fps
Аудио: AAC, 128 kbps, 44.1 kHz, 2 ch
Аудио: AAC, 192 kbps, 48.0 kHz, 2 ch
Субтитры: Японский, хардсаб
Серия 1
Серия 2
General
Unique ID : 248712941534244505321282007957138169205 (0xBB1C5EC32EA1BA87EA636A3DDF11DD75)
Complete name : Appare Ranman\[Jisedai] Appare Ranman! - 01 [1080p].mkv
Format : Matroska
Format version : Version 4
File size : 280 MiB
Duration : 22 min 10 s
Overall bit rate : 1 765 kb/s
Encoded date : UTC 2020-03-24 16:51:44
Writing application : mkvmerge v44.0.0 ('Domino') 64-bit
Writing library : libebml v1.3.10 + libmatroska v1.5.2

Video
ID : 1
Format : AVC
Format/Info : Advanced Video Codec
Format profile : High@L4
Format settings : CABAC / 4 Ref Frames
Format settings, CABAC : Yes
Format settings, Reference : 4 frames
Codec ID : V_MPEG4/ISO/AVC
Duration : 22 min 10 s
Bit rate : 1 442 kb/s
Width : 1 920 pixels
Height : 1 080 pixels
Display aspect ratio : 16:9
Frame rate mode : Constant
Frame rate : 23.976 (24000/1001) FPS
Color space : YUV
Chroma subsampling : 4:2:0
Bit depth : 8 bits
Scan type : Progressive
Bits/(Pixel*Frame) : 0.029
Stream size : 229 MiB (82%)
Writing library : x264 core 148
Encoding settings : cabac=1 / ref=15 / deblock=1:5:5 / analyse=0x3:0x113 / me=umh / subme=9 / psy=1 / psy_rd=1.00:0.00 / mixed_ref=1 / me_range=128 / chroma_me=1 / trellis=2 / 8x8dct=1 / cqm=0 / deadzone=21,11 / fast_pskip=0 / chroma_qp_offset=-2 / threads=6 / lookahead_threads=1 / sliced_threads=0 / nr=0 / decimate=1 / interlaced=0 / bluray_compat=0 / constrained_intra=0 / bframes=1 / b_pyramid=2 / b_adapt=2 / b_bias=0 / direct=1 / weightb=1 / open_gop=0 / weightp=2 / keyint=25 / keyint_min=20 / scenecut=40 / intra_refresh=0 / rc_lookahead=100 / rc=crf / mbtree=1 / crf=18.0 / qcomp=0.60 / qpmin=0 / qpmax=18 / qpstep=4 / vbv_maxrate=2000 / vbv_bufsize=4000 / crf_max=0.0 / nal_hrd=none / filler=0 / ip_ratio=1.40 / aq=1:1.00
Default : Yes
Forced : No

Audio #1
ID : 2
Format : AAC LC
Format/Info : Advanced Audio Codec Low Complexity
Codec ID : A_AAC-2
Duration : 22 min 10 s
Bit rate : 192 kb/s
Channel(s) : 2 channels
Channel layout : L R
Sampling rate : 48.0 kHz
Frame rate : 46.875 FPS (1024 SPF)
Compression mode : Lossy
Delay relative to video : -114 ms
Stream size : 30.4 MiB (11%)
Language : Russian
Default : Yes
Forced : No

Audio #2
ID : 3
Format : AAC LC SBR
Format/Info : Advanced Audio Codec Low Complexity with Spectral Band Replication
Commercial name : HE-AAC
Format settings : Implicit
Codec ID : A_AAC-2
Duration : 22 min 10 s
Bit rate : 128 kb/s
Channel(s) : 2 channels
Channel layout : L R
Sampling rate : 44.1 kHz
Frame rate : 21.533 FPS (2048 SPF)
Compression mode : Lossy
Delay relative to video : -114 ms
Stream size : 20.3 MiB (7%)
Language : Japanese
Default : No
Forced : No


Время раздачи: До первых сидов
[NNMClub.to]_Appare Ranman.torrent
 Торрент:   Зарегистрирован
 
Зарегистрируйтесь и скачайте торрент!
10,5 KB
Free Leech
Примагнититься
 Зарегистрирован:   24 Мар 2020 20:01:42
 Размер:   514 MB  (
 Рейтинг:    (Голосов: 9)
 Поблагодарили:   9
 Проверка:   Оформление проверено модератором 24 Мар 2020 22:07:37
Как cкачать  ·  Как раздать  ·  Правильно оформить  ·  Поднять ратио!  
Ampho_DnB ®
RG Аниме
Uploader 100+
 
Стаж: 8 лет 2 мес.
Сообщений: 3825
Ratio: 360,254
Поблагодарили: 88518
100%
Откуда: Душанбе
roody.gif
Предпоказные 1 и 2 серии.
С 10 апреля заменю видео и поменяю звук от "Вакака".
gbobr
Стаж: 9 лет 3 мес.
Сообщений: 26
Ratio: 6,816
100%
А следующие серии как скоро будут?
ElSwanko
Куратор Аниме
Модератор Музыки
Стаж: 13 лет 6 мес.
Сообщений: 14385
Ratio: 932,586
Поблагодарили: 59761
100%
Откуда: ур-пространство преконтинуума
roody.gif
До замены видео пока полежит здесь.

_________________
Правила: Аниме, Манга, OST || Музыка
Помощь: Скриншоты || MediaInfo || auCDtect
Показать сообщения:   
Начать новую тему   Ответить на тему    Торрент-трекер NNM-Club -> Аниме разное -> Аниме хардсаб Часовой пояс: GMT + 3
Страница 1 из 1