Классический форум-трекер
canvas not supported
Нас вместе: 4 101 110

Война токов / The Current War (2017) BDRip [720p] ATV [Director's Cut]


 
 
RSS
Начать новую тему   Ответить на тему    Торрент-трекер NNM-Club -> Аудио и Видео -> Зарубежное видео HD для устройств Apple
Автор Сообщение
Весельчак У ®
Модератор Apple
Стаж: 6 лет 3 мес.
Сообщений: 5259
Ratio: 147,785
Поблагодарили: 171145
93.94%
Откуда: От Москвы недалеко...
ussr.gif
Война токов / The Current War (2017) BDRip [720p] ATV«Кто управляет энергией – тот контролирует будущее»
Производство: США, Россия, Великобритания / Universal, Bazelevs Production, Film Rites, FlightAV.com
Жанр: Биография, история, драма

Режиссер: Альфонсо Гомес-Рехон
Продюсер: Тимур Бекмамбетов, Мартин Скорсезе, Бэзил Иваник
Актеры: Бенедикт Камбербэтч, Том Холланд, Майкл Шеннон, Николас Холт, Кэтрин Уотерстон, Мэттью Макфэдиен, Оливер Пауэлл, Нэнси Крэйн, Лиза Росс, Тим Стид

Описание:
Америка, 1880 год. Мир освещается огнём, механизмы приводятся в движение паром или приложением силы. Гениальный изобретатель Томас Эдисон совершил ряд прорывных открытий, среди которых постоянный ток и изобретение лампы накаливания. Пока он встречается с инвесторами, инженер Джордж Вестингауз, сколотивший состояние на патенте тормозов для поездов, видит больше преимуществ в использовании переменного тока. Кроме того, недальновидный бизнесмен Эдисон берёт на работу простым инженером эмигранта Николу Теслу, и не увидев в его идеях потенциала, вскоре теряет ценного сотрудника. Соревнование за электрификацию американских городов — война постоянного и переменного токов продолжается.


Возраст: 12+ (зрителям, достигшим 12 лет)
Рейтинг MPAA: PG-13 (детям до 13 лет просмотр нежелателен)
Дата мировой премьеры: 9 сентября 2017
Дата российской премьеры: 5 декабря 2019, «Пионер»

Релиз от: NNMClub

Продолжительность: 01:42:17
Качество видео: BDRip 720p
Перевод: Дублированный (iTunes)
Субтитры: Русские (forced), английские (SDH)

Видео: H.264, 1280x536 (2.40:1), ~7132 kbps, 23.976 fps
Аудио#1: AAC, 2 ch, 197 Kbps - Русский DUB, iTunes
Аудио#2: AAC, 2 ch, 192 Kbps - English Original
Аудио#3: AC3, 6 ch, 384 Kbps - Русский DUB, iTunes
Аудио#4: AC3, 6 ch, 448 Kbps - English Original

Общее
Полное имя : /Volumes/HDD/Movies/NNMC/The.Current.War.2017.BDRip.720p.m4v
Формат : MPEG-4
Идентификатор кодека : M4V (M4V /M4A /mp42/isom)
Размер файла : 5,98 Гбайт
Продолжительность : 1 ч. 42 м.
Режим общего битрейта : Переменный
Общий поток : 8365 Кбит/сек
Название фильма : Война токов
Исполнитель : Альфонсо Гомес-Рехон
Режиссёр : Альфонсо Гомес-Рехон
Исполнитель : Том Холланд / Майкл Шеннон / Николас Холт / Кэтрин Уотерстон
Сценарист : Майкл Митник
Продюсер : Timur Bekmambetov / Мартин Скорсезе
Студия-производитель : Bazelevs Company
Жанр : Драма
Тип содержимого : Short Film
Дата записи : UTC 2019-12-05 08:00:00
Дата кодирования : UTC 2020-03-26 13:01:39
Дата пометки : UTC 2020-03-26 13:05:34
Авторское право : © 2020 All Media Company
Обложка : Yes
LongDescription : Америка, 1880 год. Мир освещается огнём, механизмы приводятся в движение паром или приложением силы. Гениальный изобретатель Томас Эдисон совершил ряд прорывных открытий, среди которых постоянный ток и изобретение лампы накаливания. Пока он встречается с инвесторами, инженер Джордж Вестингауз, сколотивший состояние на патенте тормозов для поездов, видит больше преимуществ в использовании переменного тока. Кроме того, недальновидный бизнесмен Эдисон берёт на работу простым инженером эмигранта Николу Теслу, и не увидев в его идеях потенциала, вскоре теряет ценного сотрудника. Соревнование за электрификацию американских городов — война постоянного и переменного токов продолжается.
HDVideo : Yes
AppleStoreCountry : Russia
AppleStoreCatalogID : 1501678521
ContentRating : ru-movie|12+|200|

Видео #1
Идентификатор : 1
Формат : AVC
Формат/Информация : Advanced Video Codec
Профиль формата : High@L4.1
Настройки формата : CABAC / 12 Ref Frames
Параметр CABAC формата : Да
Параметр ReFrames формата : 12 кадров
Идентификатор кодека : avc1
Идентификатор кодека/Информация : Advanced Video Coding
Продолжительность : 1 ч. 42 м.
Битрейт : 7132 Кбит/сек
Ширина : 1280 пикселей
Высота : 536 пикселей
Соотношение сторон : 2,40:1
Режим частоты кадров : Переменный
Частота кадров : 23,976 (23976/1000) кадра/сек
Минимальная частота кадров : 23,810 кадра/сек
Максимальная частота кадров : 24,390 кадра/сек
Цветовое пространство : YUV
Субдискретизация насыщенности : 4:2:0
Битовая глубина : 8 бит
Тип развёртки : Прогрессивная
Бит/(Пиксели*Кадры) : 0.434
Размер потока : 5,10 Гбайт (85%)
Библиотека кодирования : x264 core 159 r2991 1771b55
Настройки программы : cabac=1 / ref=12 / deblock=1:-1:-1 / analyse=0x3:0x133 / me=tesa / subme=11 / psy=1 / psy_rd=1.00:0.00 / mixed_ref=1 / me_range=32 / chroma_me=1 / trellis=2 / 8x8dct=1 / cqm=0 / deadzone=21,11 / fast_pskip=0 / chroma_qp_offset=-2 / threads=17 / lookahead_threads=4 / sliced_threads=0 / nr=0 / decimate=0 / interlaced=0 / bluray_compat=0 / constrained_intra=0 / bframes=12 / b_pyramid=2 / b_adapt=2 / b_bias=0 / direct=3 / weightb=1 / open_gop=0 / weightp=2 / keyint=240 / keyint_min=23 / scenecut=40 / intra_refresh=0 / rc_lookahead=60 / rc=2pass / mbtree=0 / bitrate=7132 / ratetol=1.0 / qcomp=0.70 / qpmin=0 / qpmax=69 / qpstep=4 / cplxblur=20.0 / qblur=0.5 / vbv_maxrate=50000 / vbv_bufsize=62500 / nal_hrd=none / filler=0 / ip_ratio=1.40 / pb_ratio=1.30 / aq=3:0.90 / zones=91597,95696,crf=15
Язык : English
Дата кодирования : UTC 2020-03-26 13:01:39
Дата пометки : UTC 2020-03-26 13:05:19
Menus : 8,9
Codec configuration box : avcC

Видео #2
Идентификатор : 9
Формат : JPEG
Идентификатор кодека : jpeg
Продолжительность : 1 ч. 42 м.
Вид битрейта : Переменный
Битрейт : 703 бит/сек
Ширина : 640 пикселей
Высота : 268 пикселей
Соотношение сторон : 2,40:1
Режим частоты кадров : Переменный
Частота кадров : 0,003 кадр/сек
Минимальная частота кадров : 0,002 кадр/сек
Максимальная частота кадров : 0,006 кадр/сек
Цветовое пространство : YUV
Субдискретизация насыщенности : 4:2:0
Битовая глубина : 8 бит
Метод сжатия : С потерями
Бит/(Пиксели*Кадры) : 1.366
Размер потока : 572 Кбайт (0%)
Язык : English
Default : Нет
Дата кодирования : UTC 2020-03-26 13:05:34
Дата пометки : UTC 2020-03-26 13:05:34
Menu For : 1
ColorSpace_ICC : RGB

Аудио #1
Идентификатор : 2
Формат : AAC LC
Формат/Информация : Advanced Audio Codec Low Complexity
Идентификатор кодека : mp4a-40-2
Продолжительность : 1 ч. 42 м.
Вид битрейта : Переменный
Битрейт : 197 Кбит/сек
Максимальный битрейт : 292 Кбит/сек
Каналы : 2 канала
Channel layout : L R
Частота : 48,0 КГц
Частота кадров : 46,875 кадров/сек (1024 SPF)
Метод сжатия : С потерями
Размер потока : 144 Мбайт (2%)
Язык : Russian
Default : Да
Alternate group : 1
Дата кодирования : UTC 2020-03-26 13:01:39
Дата пометки : UTC 2020-03-26 13:05:20
Fallback From : 4
tagc : public.main-program-content

Аудио #2
Идентификатор : 3
Формат : AAC LC
Формат/Информация : Advanced Audio Codec Low Complexity
Идентификатор кодека : mp4a-40-2
Продолжительность : 1 ч. 42 м.
Вид битрейта : Переменный
Битрейт : 192 Кбит/сек
Максимальный битрейт : 313 Кбит/сек
Каналы : 2 канала
Channel layout : L R
Частота : 48,0 КГц
Частота кадров : 46,875 кадров/сек (1024 SPF)
Метод сжатия : С потерями
Размер потока : 142 Мбайт (2%)
Язык : English
Default : Нет
Alternate group : 1
Дата кодирования : UTC 2020-03-26 13:01:39
Дата пометки : UTC 2020-03-26 13:05:20
Fallback From : 5
tagc : public.main-program-content

Аудио #3
Идентификатор : 4
Формат : AC-3
Формат/Информация : Audio Coding 3
Коммерческое название : Dolby Digital
Идентификатор кодека : ac-3
Продолжительность : 1 ч. 42 м.
Вид битрейта : Постоянный
Битрейт : 384 Кбит/сек
Каналы : 6 каналов
Channel layout : L R C LFE Ls Rs
Частота : 48,0 КГц
Частота кадров : 31,250 кадров/сек (1536 SPF)
Метод сжатия : С потерями
Размер потока : 281 Мбайт (5%)
Язык : Russian
Service kind : Complete Main
Default : Inherited From: 2
Alternate group : 1
Дата кодирования : UTC 2020-03-26 13:01:39
Дата пометки : UTC 2020-03-26 13:05:19
Fallback To : 2
tagc : public.main-program-content

Аудио #4
Идентификатор : 5
Формат : AC-3
Формат/Информация : Audio Coding 3
Коммерческое название : Dolby Digital
Идентификатор кодека : ac-3
Продолжительность : 1 ч. 42 м.
Вид битрейта : Постоянный
Битрейт : 448 Кбит/сек
Каналы : 6 каналов
Channel layout : L R C LFE Ls Rs
Частота : 48,0 КГц
Частота кадров : 31,250 кадров/сек (1536 SPF)
Метод сжатия : С потерями
Размер потока : 328 Мбайт (5%)
Язык : English
Service kind : Complete Main
Default : Нет
Alternate group : 1
Дата кодирования : UTC 2020-03-26 13:01:39
Дата пометки : UTC 2020-03-26 13:05:19
Fallback To : 3
tagc : public.main-program-content

Текст #1
Идентификатор : 6
Формат : Timed Text
Режим смешивания : sbtl
Идентификатор кодека : tx3g
Продолжительность : 1 ч. 33 м.
Вид битрейта : Переменный
Битрейт : 6 бит/сек
Размер потока : 4,11 Кбайт (0%)
Язык : Russian
Default : Да
Forced : Нет
Alternate group : 2
Дата кодирования : UTC 2020-03-26 13:01:39
Дата пометки : UTC 2020-03-26 13:05:20
tagc : public.subtitles.forced-only

Текст #2
Идентификатор : 7
Формат : Timed Text
Режим смешивания : sbtl
Идентификатор кодека : tx3g
Продолжительность : 1 ч. 40 м.
Вид битрейта : Переменный
Битрейт : 76 бит/сек
Размер потока : 56,0 Кбайт (0%)
Язык : English
Default : Нет
Forced : Нет
Alternate group : 2
Дата кодирования : UTC 2020-03-26 13:01:39
Дата пометки : UTC 2020-03-26 13:05:20
tagc : public.accessibility.transcribes-spoken-dialog

Меню
Идентификатор : 8
Идентификатор кодека : text
Продолжительность : 1 ч. 42 м.
Язык : English
Дата кодирования : UTC 2020-03-26 13:05:20
Дата пометки : UTC 2020-03-26 13:05:20
Menu For : 1
00:00:00.000 : Chapter 1
00:04:15.880 : Chapter 2
00:07:28.781 : Chapter 3
00:13:03.616 : Chapter 4
00:17:20.205 : Chapter 5
00:23:52.431 : Chapter 6
00:31:15.081 : Chapter 7
00:36:49.999 : Chapter 8
00:41:15.389 : Chapter 9
00:45:56.587 : Chapter 10
00:52:21.555 : Chapter 11
00:56:40.730 : Chapter 12
01:01:52.375 : Chapter 13
01:06:31.362 : Chapter 14
01:13:37.955 : Chapter 15
01:17:23.221 : Chapter 16
01:24:23.891 : Chapter 17
01:28:39.480 : Chapter 18
01:33:28.686 : Chapter 19
01:36:04.508 : Chapter 20


Name: Война токов
Artist: Альфонсо Гомес-Рехон
Media Kind: Movie
HD Video: 720p
Genre: Драма
Release Date: 2019-12-05T08:00:00Z
Long Description: Америка, 1880 год. Мир освещается огнём, механизмы приводятся в движение паром или приложением силы. Гениальный изобретатель Томас Эдисон совершил ряд прорывных открытий, среди которых постоянный ток и изобретение лампы накаливания. Пока он встречается с инвесторами, инженер Джордж Вестингауз, сколотивший состояние на патенте тормозов для поездов, видит больше преимуществ в использовании переменного тока. Кроме того, недальновидный бизнесмен Эдисон берёт на работу простым инженером эмигранта Николу Теслу, и не увидев в его идеях потенциала, вскоре теряет ценного сотрудника. Соревнование за электрификацию американских городов — война постоянного и переменного токов продолжается.
Rating: ru-movie|12+|200|
Studio: Bazelevs Company
Cast: Том Холланд, Майкл Шеннон, Николас Холт, Кэтрин Уотерстон
Director: Альфонсо Гомес-Рехон
Producers: Timur Bekmambetov, Мартин Скорсезе
Screenwriters: Майкл Митник
Copyright: © 2020 All Media Company
content ID: 1501678521
iTunes Country: 143469

Скриншоты:


Все одноименные релизы в Клубе
Время раздачи: 24/7 (до появления первых 3-5 скачавших)

Релиз подготовлен для просмотра на Apple TV, iPad, iPhone, iPod Touch.
Для просмотра данного релиза на компьютере с ОС Windows рекомендуется использовать VLC media player
[NNMClub.to]_The.Current.War.2017.BDRip.720p.m4v.torrent
 Торрент: Платиновая раздача  Зарегистрирован
 
Скачать


Примагнититься
 Зарегистрирован:   26 Мар 2020 16:19:11
 Размер:   5,98 GB  (
 Рейтинг:    (Голосов: 9)
 Поблагодарили:   66
 Проверка:   Оформление проверено модератором 26 Мар 2020 18:55:21
Как cкачать  ·  Как раздать  ·  Правильно оформить  ·  Поднять ратио!  

_________________
«Всё против нас, только ветер навстречу…».
🍏Apple iMac 21.5 (mid 2011) / Intel Core i5 2.7 GHz / AMD Radeon HD 6770M 512 Mb / 12GB DDR3 / Apple Trackpad, Apple Keyboard / macOS High Sierra 10.13.6 (17G12034)
Весельчак У ®
Модератор Apple
Стаж: 6 лет 3 мес.
Сообщений: 5259
Ratio: 147,785
Поблагодарили: 171145
93.94%
Откуда: От Москвы недалеко...
ussr.gif
Фильм, как бы, про электричество, а все сцены в темноте, в полумраке, режиссерская находка!? :задумался:

_________________
«Всё против нас, только ветер навстречу…».
🍏Apple iMac 21.5 (mid 2011) / Intel Core i5 2.7 GHz / AMD Radeon HD 6770M 512 Mb / 12GB DDR3 / Apple Trackpad, Apple Keyboard / macOS High Sierra 10.13.6 (17G12034)
desz
Стаж: 9 лет 1 мес.
Сообщений: 320
Ratio: 2,136
17.58%
Откуда: Реальность
pirates.png
Весельчак У
какой фильм, такое електричество!

_________________
press F8 to select Advanced Life options
RWolf1337
Стаж: 4 года 10 мес.
Сообщений: 42
Ratio: 0,063
Раздал: 2,96 GB
7.75%
Откуда: almaty
germany.gif
ОГО! режисерка версиаа))
VjokerA
Стаж: 7 лет
Сообщений: 7
Ratio: 1,084
Раздал: 252 GB
100%
belarus.gif
1080 будет?
Показать сообщения:   
Начать новую тему   Ответить на тему    Торрент-трекер NNM-Club -> Аудио и Видео -> Зарубежное видео HD для устройств Apple Часовой пояс: GMT + 3
Страница 1 из 1