Классический форум-трекер
canvas not supported
Нас вместе: 4 114 588

Мюнхен / Munich (2005) WEB-DL [1080p] ATV


 
 
RSS
Начать новую тему   Ответить на тему    Торрент-трекер NNM-Club -> Аудио и Видео -> Зарубежное видео HD для устройств Apple
Автор Сообщение
Весельчак У ®
Модератор Apple
Uploader 100+
Стаж: 6 лет 5 мес.
Сообщений: 6098
Ratio: 160,436
Поблагодарили: 197217
93.13%
Откуда: От Москвы недалеко...
ussr.gif
Мюнхен / Munich (2005) WEB-DL [1080p] ATV«В 1972 году весь мир наблюдал, как 11 израильских атлетов были убиты во время Олимпийских Игр в Мюнхене. Это история о том, что случилось потом...»
Производство: США, Канада, Франция / DreamWorks SKG, Universal Pictures
Жанр: Триллер, драма

Режиссер: Стивен Спилберг
Продюсер: Кэтлин Кеннеди, Бэрри Мендел, Стивен Спилберг
Актеры: Эрик Бана, Дэниэл Крэйг, Киаран Хиндс, Матьё Кассовиц, Ханнс Цишлер, Айелет Зурер, Джеффри Раш, Гила Альмагор, Микаэль Лонсдаль, Матье Амальрик

Описание:
Агент МОССАД и его группа выслеживает и методично уничтожает палестинских террористов, повинных в смерти израильских спортсменов в аэропорту Мюнхена после Олимпиады 1972 года…


Возраст: 16+ (зрителям, достигшим 16 лет)
Рейтинг MPAA: R (лицам до 17 лет обязательно присутствие взрослого)

Релиз от: NNMClub

Продолжительность: 02:43:43
Качество видео: WEB-DL 1080р
Перевод: Дублированный, профессиональный двухголосый, авторский одноголосый
Субтитры: Русские (captions, full / Netflix, full), украинские (full / Netflix), английские (Captions, full / Amazon, full, SDH / Netflix)

Видео: H.264, 1920x1080 (16:9), ~14,6 Mbps, 23.976 fps
Аудио#1: AAC, 2 ch, 160 Kbps - Русский DUB, R5 / Netflix
Аудио#2: AAC, 2 ch, 192 Kbps - Русский DVO, Tycoon Studio
Аудио#3: AAC, 2 ch, 192 Kbps - Русский DVO, П. Гланц и И. Королёва
Аудио#4: AAC, 2 ch, 192 Kbps - Русский AVO, Ю. Немахов
Аудио#5: AAC, 2 ch, 171 Kbps - Український MVO, ICTV
Аудио#6: AAC, 2 ch, 192 Kbps - English Original
Аудио#7: AC3, 6 ch, 640 Kbps - Русский DVO, П. Гланц и И. Королёва
Аудио#8: AC3, 6 ch, 640 Kbps - Русский AVO, Ю. Немахов
Аудио#9: AC3, 6 ch, 640 Kbps - English Original

Общее
Полное имя : /Volumes/HDD/Movies/NNMC/Munich.2005.WEB-DL.1080p.m4v
Формат : MPEG-4
Идентификатор кодека : M4V (M4V /M4A /mp42/isom)
Размер файла : 20,2 Гбайт
Продолжительность : 2 ч. 43 м.
Режим общего битрейта : Переменный
Общий поток : 17,6 Мбит/сек
Название фильма : Мюнхен
Исполнитель : Steven Spielberg
Режиссёр : Steven Spielberg
Исполнитель : Eric Bana / Daniel Craig / Ciarán Hinds / Mathieu Kassovitz / Hanns Zischler / Geoffrey Rush
Продюсер : Steven Spielberg / Kathleen Kennedy / Barry Mendel / Colin Wilson
Студия-производитель : Dreamworks
Жанр : Драма
Тип содержимого : Short Film
Дата записи : UTC 2006-02-16 08:00:00
Дата кодирования : UTC 2020-04-06 20:56:51
Дата пометки : UTC 2020-04-06 21:18:21
Авторское право : © 2005 UNIVERSAL STUDIOS AND DREAMWORKS LLC. ALL RIGHTS / RESERVED.
Обложка : Yes
LongDescription : Во время Олимпиады в Мюнхене в 1972 году 11 израильских спортсменов были взяты в заложники, а затем убиты палестинской террористической группой "Черный сентябрь". Для возмездия правительство Израиля нанимает группу агентов "Моссада" для выслеживания и уничтожения всех, кто несет ответственность за этот теракт.
AppleStoreCountry : Russia
AppleStoreCatalogID : 573524750
ContentRating : ru-movie|16+|375|

Видео #1
Идентификатор : 1
Формат : AVC
Формат/Информация : Advanced Video Codec
Профиль формата : High@L4
Настройки формата : CABAC / 4 Ref Frames
Параметр CABAC формата : Да
Параметр ReFrames формата : 4 кадра
Идентификатор кодека : avc1
Идентификатор кодека/Информация : Advanced Video Coding
Продолжительность : 2 ч. 43 м.
Вид битрейта : Переменный
Битрейт : 14,6 Мбит/сек
Максимальный битрейт : 15,0 Мбит/сек
Ширина : 1 920 пикселей
Высота : 1 080 пикселей
Соотношение сторон : 16:9
Режим частоты кадров : Переменный
Частота кадров : 23,976 (24000/1001) кадра/сек
Минимальная частота кадров : 23,810 кадра/сек
Максимальная частота кадров : 24,390 кадра/сек
Цветовое пространство : YUV
Субдискретизация насыщенности : 4:2:0
Битовая глубина : 8 бит
Тип развёртки : Прогрессивная
Бит/(Пиксели*Кадры) : 0.293
Размер потока : 16,7 Гбайт (83%)
Библиотека кодирования : x264 core 148 r2623 d5b2374
Настройки программы : cabac=1 / ref=4 / deblock=1:-1:-1 / analyse=0x3:0x133 / me=umh / subme=9 / psy=1 / psy_rd=1.00:0.15 / mixed_ref=1 / me_range=24 / chroma_me=1 / trellis=2 / 8x8dct=1 / cqm=0 / deadzone=21,11 / fast_pskip=1 / chroma_qp_offset=-3 / threads=34 / lookahead_threads=5 / sliced_threads=0 / nr=150 / decimate=1 / interlaced=0 / bluray_compat=0 / constrained_intra=0 / bframes=8 / b_pyramid=2 / b_adapt=2 / b_bias=0 / direct=3 / weightb=1 / open_gop=0 / weightp=2 / keyint=120 / keyint_min=61 / scenecut=0 / intra_refresh=0 / rc_lookahead=120 / rc=crf / mbtree=1 / crf=18.0 / qcomp=0.60 / qpmin=0 / qpmax=69 / qpstep=4 / vbv_maxrate=15000 / vbv_bufsize=31250 / crf_max=0.0 / nal_hrd=vbr / filler=0 / ip_ratio=1.40 / aq=3:1.00
Язык : English
Дата кодирования : UTC 2020-04-06 20:56:51
Дата пометки : UTC 2020-04-06 21:18:01
Цветовой диапазон : Limited
Основные цвета : BT.709
Характеристики трансфера : BT.709
Коэффициенты матрицы : BT.709
Menus : 18,19
Codec configuration box : avcC

Видео #2
Идентификатор : 19
Формат : JPEG
Идентификатор кодека : jpeg
Продолжительность : 2 ч. 43 м.
Вид битрейта : Переменный
Битрейт : 775 бит/сек
Ширина : 640 пикселей
Высота : 360 пикселей
Соотношение сторон : 16:9
Режим частоты кадров : Переменный
Частота кадров : 0,002 кадр/сек
Минимальная частота кадров : 0,001 кадр/сек
Максимальная частота кадров : 0,004 кадр/сек
Цветовое пространство : YUV
Субдискретизация насыщенности : 4:2:0
Битовая глубина : 8 бит
Метод сжатия : С потерями
Бит/(Пиксели*Кадры) : 1.682
Размер потока : 946 Кбайт (0%)
Язык : English
Default : Нет
Дата кодирования : UTC 2020-04-06 21:18:19
Дата пометки : UTC 2020-04-06 21:18:19
Menu For : 1
ColorSpace_ICC : RGB

Аудио #1
Идентификатор : 2
Формат : AAC LC
Формат/Информация : Advanced Audio Codec Low Complexity
Идентификатор кодека : mp4a-40-2
Продолжительность : 2 ч. 43 м.
Продолжительность оригинала : 2 ч. 43 м.
Вид битрейта : Переменный
Битрейт : 154 Кбит/сек
Максимальный битрейт : 199 Кбит/сек
Каналы : 2 канала
Channel layout : L R
Частота : 48,0 КГц
Частота кадров : 46,875 кадров/сек (1024 SPF)
Метод сжатия : С потерями
Размер потока : 180 Мбайт (1%)
Размер потока оригинала : 180 Мбайт (1%)
Язык : Russian
Default : Да
Alternate group : 1
Дата кодирования : UTC 2020-04-06 20:56:51
Дата пометки : UTC 2020-04-06 20:59:44
tagc : public.main-program-content

Аудио #2
Идентификатор : 3
Формат : AAC LC
Формат/Информация : Advanced Audio Codec Low Complexity
Идентификатор кодека : mp4a-40-2
Продолжительность : 2 ч. 43 м.
Вид битрейта : Переменный
Битрейт : 192 Кбит/сек
Максимальный битрейт : 298 Кбит/сек
Каналы : 2 канала
Channel layout : L R
Частота : 48,0 КГц
Частота кадров : 46,875 кадров/сек (1024 SPF)
Метод сжатия : С потерями
Размер потока : 229 Мбайт (1%)
Язык : Russian
Default : Нет
Alternate group : 1
Дата кодирования : UTC 2020-04-06 20:56:51
Дата пометки : UTC 2020-04-06 21:18:01
tagc : public.auxiliary-content

Аудио #3
Идентификатор : 4
Формат : AAC LC
Формат/Информация : Advanced Audio Codec Low Complexity
Идентификатор кодека : mp4a-40-2
Продолжительность : 2 ч. 43 м.
Вид битрейта : Переменный
Битрейт : 192 Кбит/сек
Максимальный битрейт : 335 Кбит/сек
Каналы : 2 канала
Channel layout : L R
Частота : 48,0 КГц
Частота кадров : 46,875 кадров/сек (1024 SPF)
Метод сжатия : С потерями
Размер потока : 229 Мбайт (1%)
Язык : Russian
Default : Нет
Alternate group : 1
Дата кодирования : UTC 2020-04-06 20:56:51
Дата пометки : UTC 2020-04-06 21:18:01
Fallback From : 8
tagc : public.main-program-content

Аудио #4
Идентификатор : 5
Формат : AAC LC
Формат/Информация : Advanced Audio Codec Low Complexity
Идентификатор кодека : mp4a-40-2
Продолжительность : 2 ч. 43 м.
Вид битрейта : Переменный
Битрейт : 192 Кбит/сек
Максимальный битрейт : 324 Кбит/сек
Каналы : 2 канала
Channel layout : L R
Частота : 48,0 КГц
Частота кадров : 46,875 кадров/сек (1024 SPF)
Метод сжатия : С потерями
Размер потока : 228 Мбайт (1%)
Язык : Russian
Default : Нет
Alternate group : 1
Дата кодирования : UTC 2020-04-06 20:56:51
Дата пометки : UTC 2020-04-06 21:18:01
Fallback From : 9
tagc : public.auxiliary-content

Аудио #5
Идентификатор : 6
Формат : AAC LC
Формат/Информация : Advanced Audio Codec Low Complexity
Идентификатор кодека : mp4a-40-2
Продолжительность : 2 ч. 43 м.
Вид битрейта : Переменный
Битрейт : 171 Кбит/сек
Максимальный битрейт : 254 Кбит/сек
Каналы : 2 канала
Channel layout : L R
Частота : 48,0 КГц
Частота кадров : 46,875 кадров/сек (1024 SPF)
Метод сжатия : С потерями
Размер потока : 200 Мбайт (1%)
Язык : Ukrainian
Default : Нет
Alternate group : 1
Дата кодирования : UTC 2020-04-06 20:56:51
Дата пометки : UTC 2020-04-06 21:18:01
tagc : public.main-program-content

Аудио #6
Идентификатор : 7
Формат : AAC LC
Формат/Информация : Advanced Audio Codec Low Complexity
Идентификатор кодека : mp4a-40-2
Продолжительность : 2 ч. 43 м.
Вид битрейта : Переменный
Битрейт : 192 Кбит/сек
Максимальный битрейт : 336 Кбит/сек
Каналы : 2 канала
Channel layout : L R
Частота : 48,0 КГц
Частота кадров : 46,875 кадров/сек (1024 SPF)
Метод сжатия : С потерями
Размер потока : 229 Мбайт (1%)
Язык : English
Default : Нет
Alternate group : 1
Дата кодирования : UTC 2020-04-06 20:56:51
Дата пометки : UTC 2020-04-06 21:18:01
Fallback From : 10
tagc : public.main-program-content

Аудио #7
Идентификатор : 8
Формат : AC-3
Формат/Информация : Audio Coding 3
Коммерческое название : Dolby Digital
Идентификатор кодека : ac-3
Продолжительность : 2 ч. 43 м.
Вид битрейта : Постоянный
Битрейт : 640 Кбит/сек
Каналы : 6 каналов
Channel layout : L R C LFE Ls Rs
Частота : 48,0 КГц
Частота кадров : 31,250 кадров/сек (1536 SPF)
Метод сжатия : С потерями
Размер потока : 750 Мбайт (4%)
Язык : Russian
Service kind : Complete Main
Default : Нет
Alternate group : 1
Дата кодирования : UTC 2020-04-06 20:56:51
Дата пометки : UTC 2020-04-06 21:18:01
Fallback To : 4
tagc : public.main-program-content

Аудио #8
Идентификатор : 9
Формат : AC-3
Формат/Информация : Audio Coding 3
Коммерческое название : Dolby Digital
Идентификатор кодека : ac-3
Продолжительность : 2 ч. 43 м.
Вид битрейта : Постоянный
Битрейт : 640 Кбит/сек
Каналы : 6 каналов
Channel layout : L R C LFE Ls Rs
Частота : 48,0 КГц
Частота кадров : 31,250 кадров/сек (1536 SPF)
Метод сжатия : С потерями
Размер потока : 750 Мбайт (4%)
Язык : Russian
Service kind : Complete Main
Default : Нет
Alternate group : 1
Дата кодирования : UTC 2020-04-06 20:56:51
Дата пометки : UTC 2020-04-06 21:18:01
Fallback To : 5
tagc : public.auxiliary-content

Аудио #9
Идентификатор : 10
Формат : AC-3
Формат/Информация : Audio Coding 3
Коммерческое название : Dolby Digital
Идентификатор кодека : ac-3
Продолжительность : 2 ч. 43 м.
Вид битрейта : Постоянный
Битрейт : 640 Кбит/сек
Каналы : 6 каналов
Channel layout : L R C LFE Ls Rs
Частота : 48,0 КГц
Частота кадров : 31,250 кадров/сек (1536 SPF)
Метод сжатия : С потерями
Размер потока : 750 Мбайт (4%)
Язык : English
Service kind : Complete Main
Default : Нет
Alternate group : 1
Дата кодирования : UTC 2020-04-06 20:56:51
Дата пометки : UTC 2020-04-06 21:18:01
Fallback To : 7
tagc : public.main-program-content

Текст #1
Идентификатор : 11
Формат : Timed Text
Режим смешивания : sbtl
Идентификатор кодека : tx3g
Продолжительность : 2 ч. 43 м.
Вид битрейта : Переменный
Битрейт : 3 бит/сек
Размер потока : 4,06 Кбайт (0%)
Язык : Russian
Default : Да
Forced : Нет
Alternate group : 2
Дата кодирования : UTC 2020-04-06 20:56:51
Дата пометки : UTC 2020-04-06 21:18:01
tagc : public.main-program-content

Текст #2
Идентификатор : 12
Формат : Timed Text
Режим смешивания : sbtl
Идентификатор кодека : tx3g
Продолжительность : 2 ч. 43 м.
Вид битрейта : Переменный
Битрейт : 94 бит/сек
Размер потока : 113 Кбайт (0%)
Язык : Russian
Default : Нет
Forced : Нет
Alternate group : 2
Дата кодирования : UTC 2020-04-06 20:56:51
Дата пометки : UTC 2020-04-06 21:18:02
tagc : public.auxiliary-content

Текст #3
Идентификатор : 13
Формат : Timed Text
Режим смешивания : sbtl
Идентификатор кодека : tx3g
Продолжительность : 2 ч. 36 м.
Вид битрейта : Переменный
Битрейт : 93 бит/сек
Размер потока : 106 Кбайт (0%)
Язык : Russian
Default : Нет
Forced : Нет
Alternate group : 2
Дата кодирования : UTC 2020-04-06 20:56:51
Дата пометки : UTC 2020-04-06 21:18:02
tagc : public.auxiliary-content

Текст #4
Идентификатор : 14
Формат : Timed Text
Режим смешивания : sbtl
Идентификатор кодека : tx3g
Продолжительность : 2 ч. 43 м.
Вид битрейта : Переменный
Битрейт : 89 бит/сек
Размер потока : 106 Кбайт (0%)
Язык : Ukrainian
Default : Нет
Forced : Нет
Alternate group : 2
Дата кодирования : UTC 2020-04-06 20:56:51
Дата пометки : UTC 2020-04-06 21:18:02
tagc : public.main-program-content

Текст #5
Идентификатор : 15
Формат : Timed Text
Режим смешивания : sbtl
Идентификатор кодека : tx3g
Продолжительность : 2 ч. 36 м.
Вид битрейта : Переменный
Битрейт : 2 бит/сек
Размер потока : 2,08 Кбайт (0%)
Язык : English
Default : Нет
Forced : Нет
Alternate group : 2
Дата кодирования : UTC 2020-04-06 20:56:51
Дата пометки : UTC 2020-04-06 21:18:01
tagc : public.main-program-content

Текст #6
Идентификатор : 16
Формат : Timed Text
Режим смешивания : sbtl
Идентификатор кодека : tx3g
Продолжительность : 2 ч. 36 м.
Вид битрейта : Переменный
Битрейт : 56 бит/сек
Размер потока : 64,2 Кбайт (0%)
Язык : English
Default : Нет
Forced : Нет
Alternate group : 2
Дата кодирования : UTC 2020-04-06 20:56:51
Дата пометки : UTC 2020-04-06 21:18:02
tagc : public.auxiliary-content

Текст #7
Идентификатор : 17
Формат : Timed Text
Режим смешивания : sbtl
Идентификатор кодека : tx3g
Продолжительность : 2 ч. 37 м.
Вид битрейта : Переменный
Битрейт : 69 бит/сек
Размер потока : 80,0 Кбайт (0%)
Язык : English
Default : Нет
Forced : Нет
Alternate group : 2
Дата кодирования : UTC 2020-04-06 20:56:51
Дата пометки : UTC 2020-04-06 21:18:02
tagc : public.accessibility.transcribes-spoken-dialog

Меню
Идентификатор : 18
Идентификатор кодека : text
Продолжительность : 2 ч. 43 м.
Язык : English
Дата кодирования : UTC 2020-04-06 21:18:02
Дата пометки : UTC 2020-04-06 21:18:02
Menu For : 1
00:00:00.000 : Black September
00:09:27.859 : Eleven Names
00:22:58.459 : Seeking Revenge
00:33:30.215 : First Target Acquired
00:41:27.858 : The Voice of Terror
00:47:26.049 : Innocent Lies
00:58:30.754 : A Question of Trust
01:07:28.708 : Significent Information
01:16:26.370 : Meeting Papa
01:25:08.474 : In the Safe House
01:34:04.301 : The Cost of Killing
01:44:59.872 : Outside Interference
01:54:22.267 : Isolation
01:59:06.258 : Evil Falls Suddenly
02:06:48.303 : Growing Paranoid
02:12:19.050 : Uncompromised Loyalty
02:19:40.991 : A Place on Earth
02:27:38.885 : Family Matters
02:32:27.298 : Choices
02:36:29.539 : End Titles


Name: Мюнхен
Artist: Steven Spielberg
Media Kind: Movie
HD Video: 1080p
Genre: Драма
Release Date: 2006-02-16T08:00:00Z
Long Description: Во время Олимпиады в Мюнхене в 1972 году 11 израильских спортсменов были взяты в заложники, а затем убиты палестинской террористической группой "Черный сентябрь". Для возмездия правительство Израиля нанимает группу агентов "Моссада" для выслеживания и уничтожения всех, кто несет ответственность за этот теракт.
Rating: ru-movie|16+|375|
Studio: Dreamworks
Cast: Eric Bana, Daniel Craig, Ciarán Hinds, Mathieu Kassovitz, Hanns Zischler, Geoffrey Rush
Director: Steven Spielberg
Producers: Steven Spielberg, Kathleen Kennedy, Barry Mendel, Colin Wilson
Copyright: © 2005 UNIVERSAL STUDIOS AND DREAMWORKS LLC. ALL RIGH RESERVED.
content ID: 573524750
iTunes Country: 143469

Скриншоты:


Все одноименные релизы в Клубе
Время раздачи: 24/7 (до появления первых 3-5 скачавших)

Релиз подготовлен для просмотра на Apple TV, iPad, iPhone, iPod Touch.
Для просмотра данного релиза на компьютере с ОС Windows рекомендуется использовать VLC media player
[NNMClub.to]_Munich.2005.WEB-DL.1080p.m4v.torrent
 Торрент: Платиновая раздача  Зарегистрирован
 
Скачать


Примагнититься
 Зарегистрирован:   07 Апр 2020 00:40:27
 Размер:   20,2 GB  (
 Рейтинг:    (Голосов: 9)
 Поблагодарили:   45
 Проверка:   Оформление проверено модератором 07 Апр 2020 01:09:01
Как cкачать  ·  Как раздать  ·  Правильно оформить  ·  Поднять ратио!  

_________________
«Всё против нас, только ветер навстречу…».
🍏Apple iMac 21.5 (mid 2011) / Intel Core i5 2.7 GHz / AMD Radeon HD 6770M 512 Mb / 12GB DDR3 / Apple Trackpad, Apple Keyboard / macOS High Sierra 10.13.6 (17G13033)
Весельчак У ®
Модератор Apple
Uploader 100+
Стаж: 6 лет 5 мес.
Сообщений: 6098
Ratio: 160,436
Поблагодарили: 197217
93.13%
Откуда: От Москвы недалеко...
ussr.gif
Благодарю TeamHD и лично spartanec163 за предоставленный исходник

_________________
«Всё против нас, только ветер навстречу…».
🍏Apple iMac 21.5 (mid 2011) / Intel Core i5 2.7 GHz / AMD Radeon HD 6770M 512 Mb / 12GB DDR3 / Apple Trackpad, Apple Keyboard / macOS High Sierra 10.13.6 (17G13033)
Sonata007
Стаж: 4 года 2 мес.
Сообщений: 347
Ratio: 1336,279
100%
canada.gif
На один диск не умещается. Пришлось удалить.
Показать сообщения:   
Начать новую тему   Ответить на тему    Торрент-трекер NNM-Club -> Аудио и Видео -> Зарубежное видео HD для устройств Apple Часовой пояс: GMT + 3
Страница 1 из 1