Классический форум-трекер
canvas not supported
Нас вместе: 4 114 273

Подлинная история банды Келли / True History of the Kelly Gang (2019) WEB-DL [720p] ATV


 
 
RSS
Начать новую тему   Ответить на тему    Торрент-трекер NNM-Club -> Аудио и Видео -> Зарубежное видео HD для устройств Apple
Автор Сообщение
Весельчак У ®
Модератор Apple
Uploader 100+
Стаж: 6 лет 5 мес.
Сообщений: 6085
Ratio: 160,203
Поблагодарили: 196826
93.13%
Откуда: От Москвы недалеко...
ussr.gif
Подлинная история банды Келли / True History of the Kelly Gang (2019) WEB-DL [720p] ATV
Производство: Великобритания, Франция, Австралия / Daybreak Pictures, Film Victoria, Film4, La Cinéfacture, Porchlight Films Pty. Ltd., Screen Australia
Жанр: Криминал, биография, драма, вестерн

Режиссер: Джастин Курзель
Продюсер: Джастин Курзель, Пол Рэнфорд, Хэл Фогель
Актеры: Джордж Маккэй, Рассел Кроу, Николас Холт, Эсси Дэвис, Джейкоб Коллинс-Леви, Шон Кинэн, Томасин МакКензи, Чарли Ханнэм, Клаудия Карван, Марлон Уильямс

Описание:
1860-е, Австралия. Семья подростка Неда нищенствует, и мать не брезгует проституцией, чтобы прокормить детей. Когда отец умирает в тюрьме, куда он попал за украденную Недом коровью ногу, мальчик преисполняется чувством вины. Через некоторое время парень отправляется с новым знакомым матери Гарри Пауэром перегонять скот, но вскоре выясняет, что мать продала его бандиту, и Нед должен помогать Гарри одурачивать путников, чтобы их грабить и убивать. Так начинается путь во взрослую жизнь впоследствии известного разбойника Неда Келли.


Возраст: 18+ (зрителям, достигшим 18 лет. запрещено для детей)
Рейтинг MPAA: R (лицам до 17 лет обязательно присутствие взрослого)
Дата мировой премьеры: 11 сентября 2019
Дата российской премьеры: 27 февраля 2020, «Вольга»

Релиз от: NNMClub

Продолжительность: 02:04:57
Качество видео: WEB-DL 720p
Перевод: Дублированный (iTunes)
Субтитры: Русские (Full)

Видео: H.264, 1280x690 (1.85:1), ~4103 kbps, 24.000 fps
Аудио#1: AAC, 2.0 ch, 228 Kbps - Русский DUB, iTunes
Аудио#2: AAC, 2.0 ch, 228 Kbps - Український DUB, iTunes
Аудио#3: AAC, 2.0 ch, 227 Kbps - English Original
Аудио#4: AC3, 6.0 ch, 384 Kbps - Русский DUB, iTunes
Аудио#5: AC3, 6.0 ch, 384 Kbps - English Original

Общее
Полное имя : /Volumes/HDD/Movies/NNMClub/True.History.of.the.Kelly.Gang.2019.WEB-DL.720p.NNMClub.m4v
Формат : MPEG-4
Идентификатор кодека : M4V (M4V /M4A /mp42/isom)
Размер файла : 4,86 Гбайт
Продолжительность : 2 ч. 4 м.
Режим общего битрейта : Переменный
Общий поток : 5 566 Кбит/сек
Название фильма : Подлинная история банды Келли
Исполнитель : Justin Kurzel
Режиссёр : Justin Kurzel
Исполнитель : Джордж МакКэй / Рассел Кроу / Николас Холт / Эсси Дэвис / Чарли Ханнэм
Сценарист : Шон Грант / Питер Кэри
Продюсер : Justin Kurzel / Пол Рэнфорд / Хэл Фогель / Лиз Уоттс
Студия-производитель : Daybreak Pictures, Film Victoria, Film4, La Cinéfacture, Porchlight Films Pty. Ltd., Screen Australia
Жанр : Триллеры
Тип содержимого : Short Film
Дата записи : UTC 2020-02-27 08:00:00
Дата кодирования : UTC 2020-04-23 19:52:09
Дата пометки : UTC 2020-04-23 20:04:31
Авторское право : © 2020 Volga Film
Обложка : Yes
LongDescription : Жизнь знаменитого бандита Неда Келли, от одного упоминания имени которого дрожала вся полиция. О его дерзких ограблениях банков слагали легенды, а за его голову была назначена огромная награда. Один из самых противоречивых персонажей мировой криминальной истории, которого многие считали благородным разбойником и реальным Робином Гудом.
HDVideo : Yes
AppleStoreCountry : Russia
AppleStoreCatalogID : 1506266438
ContentRating : ru-movie|18+|400|

Видео #1
Идентификатор : 1
Формат : AVC
Формат/Информация : Advanced Video Codec
Профиль формата : High@L3.1
Настройки формата : 2 Ref Frames
Параметр CABAC формата : Нет
Параметр ReFrames формата : 2 кадра
Идентификатор кодека : avc1
Идентификатор кодека/Информация : Advanced Video Coding
Продолжительность : 2 ч. 4 м.
Битрейт : 4 103 Кбит/сек
Ширина : 1 280 пикселей
Высота : 690 пикселей
Соотношение сторон : 1,85:1
Режим частоты кадров : Переменный
Частота кадров : 24,000 кадра/сек
Минимальная частота кадров : 23,810 кадра/сек
Максимальная частота кадров : 24,390 кадра/сек
Цветовое пространство : YUV
Субдискретизация насыщенности : 4:2:0
Битовая глубина : 8 бит
Тип развёртки : Прогрессивная
Бит/(Пиксели*Кадры) : 0.194
Размер потока : 3,58 Гбайт (74%)
Язык : English
Дата кодирования : UTC 2020-04-23 19:52:09
Дата пометки : UTC 2020-04-23 20:04:23
Цветовой диапазон : Limited
Основные цвета : BT.709
Характеристики трансфера : BT.709
Коэффициенты матрицы : BT.709
Menus : 8,9
Codec configuration box : avcC

Видео #2
Идентификатор : 9
Формат : JPEG
Идентификатор кодека : jpeg
Продолжительность : 2 ч. 4 м.
Вид битрейта : Переменный
Битрейт : 808 бит/сек
Ширина : 640 пикселей
Высота : 345 пикселей
Соотношение сторон : 1,85:1
Режим частоты кадров : Переменный
Частота кадров : 0,003 кадр/сек
Минимальная частота кадров : 0,002 кадр/сек
Максимальная частота кадров : 0,003 кадр/сек
Цветовое пространство : YUV
Субдискретизация насыщенности : 4:2:0
Битовая глубина : 8 бит
Метод сжатия : С потерями
Бит/(Пиксели*Кадры) : 1.220
Размер потока : 624 Кбайт (0%)
Язык : English
Default : Нет
Дата кодирования : UTC 2020-04-23 20:04:30
Дата пометки : UTC 2020-04-23 20:04:31
Menu For : 1
ColorSpace_ICC : RGB

Аудио #1
Идентификатор : 2
Формат : AAC LC
Формат/Информация : Advanced Audio Codec Low Complexity
Идентификатор кодека : mp4a-40-2
Продолжительность : 2 ч. 4 м.
Вид битрейта : Переменный
Битрейт : 228 Кбит/сек
Максимальный битрейт : 401 Кбит/сек
Каналы : 2 канала
Channel layout : L R
Частота : 48,0 КГц
Частота кадров : 46,875 кадров/сек (1024 SPF)
Метод сжатия : С потерями
Размер потока : 204 Мбайт (4%)
Язык : Russian
Default : Да
Alternate group : 1
Дата кодирования : UTC 2020-04-23 19:52:09
Дата пометки : UTC 2020-04-23 20:04:23
Fallback From : 5
tagc : public.main-program-content

Аудио #2
Идентификатор : 3
Формат : AAC LC
Формат/Информация : Advanced Audio Codec Low Complexity
Идентификатор кодека : mp4a-40-2
Продолжительность : 2 ч. 4 м.
Вид битрейта : Переменный
Битрейт : 228 Кбит/сек
Максимальный битрейт : 380 Кбит/сек
Каналы : 2 канала
Channel layout : L R
Частота : 48,0 КГц
Частота кадров : 46,875 кадров/сек (1024 SPF)
Метод сжатия : С потерями
Размер потока : 204 Мбайт (4%)
Язык : Ukrainian
Default : Нет
Alternate group : 1
Дата кодирования : UTC 2020-04-23 19:52:09
Дата пометки : UTC 2020-04-23 20:04:23
tagc : public.main-program-content

Аудио #3
Идентификатор : 4
Формат : AAC LC
Формат/Информация : Advanced Audio Codec Low Complexity
Идентификатор кодека : mp4a-40-2
Продолжительность : 2 ч. 4 м.
Вид битрейта : Переменный
Битрейт : 227 Кбит/сек
Максимальный битрейт : 398 Кбит/сек
Каналы : 2 канала
Channel layout : L R
Частота : 48,0 КГц
Частота кадров : 46,875 кадров/сек (1024 SPF)
Метод сжатия : С потерями
Размер потока : 203 Мбайт (4%)
Язык : English
Default : Нет
Alternate group : 1
Дата кодирования : UTC 2020-04-23 19:52:09
Дата пометки : UTC 2020-04-23 20:04:23
Fallback From : 6
tagc : public.main-program-content

Аудио #4
Идентификатор : 5
Формат : AC-3
Формат/Информация : Audio Coding 3
Коммерческое название : Dolby Digital
Идентификатор кодека : ac-3
Продолжительность : 2 ч. 4 м.
Вид битрейта : Постоянный
Битрейт : 384 Кбит/сек
Каналы : 6 каналов
Channel layout : L R C LFE Ls Rs
Частота : 48,0 КГц
Частота кадров : 31,250 кадров/сек (1536 SPF)
Метод сжатия : С потерями
Размер потока : 343 Мбайт (7%)
Язык : Russian
Service kind : Complete Main
Default : Inherited From: 2
Alternate group : 1
Дата кодирования : UTC 2020-04-23 19:52:09
Дата пометки : UTC 2020-04-23 20:04:23
Fallback To : 2
tagc : public.main-program-content

Аудио #5
Идентификатор : 6
Формат : AC-3
Формат/Информация : Audio Coding 3
Коммерческое название : Dolby Digital
Идентификатор кодека : ac-3
Продолжительность : 2 ч. 4 м.
Вид битрейта : Постоянный
Битрейт : 384 Кбит/сек
Каналы : 6 каналов
Channel layout : L R C LFE Ls Rs
Частота : 48,0 КГц
Частота кадров : 31,250 кадров/сек (1536 SPF)
Метод сжатия : С потерями
Размер потока : 343 Мбайт (7%)
Язык : English
Service kind : Complete Main
Default : Нет
Alternate group : 1
Дата кодирования : UTC 2020-04-23 19:52:09
Дата пометки : UTC 2020-04-23 20:04:23
Fallback To : 4
tagc : public.main-program-content

Текст
Идентификатор : 7
Формат : Timed Text
Режим смешивания : sbtl
Идентификатор кодека : tx3g
Продолжительность : 1 ч. 59 м.
Вид битрейта : Переменный
Битрейт : 93 бит/сек
Размер потока : 81,5 Кбайт (0%)
Язык : Russian
Default : Да
Forced : Нет
Alternate group : 2
Дата кодирования : UTC 2020-04-23 19:52:09
Дата пометки : UTC 2020-04-23 20:04:23
tagc : public.main-program-content

Меню
Идентификатор : 8
Идентификатор кодека : text
Продолжительность : 2 ч. 4 м.
Язык : English
Дата кодирования : UTC 2020-04-23 20:04:24
Дата пометки : UTC 2020-04-23 20:04:24
Menu For : 1
00:00:00.000 : Глава 1
00:07:04.332 : Глава 2
00:11:55.249 : Глава 3
00:18:02.332 : Глава 4
00:22:54.790 : Глава 5
00:30:19.831 : Глава 6
00:36:53.581 : Глава 7
00:41:55.164 : Глава 8
00:49:34.080 : Глава 9
00:57:48.913 : Глава 10
01:03:50.079 : Глава 11
01:09:48.370 : Глава 12
01:15:10.453 : Глава 13
01:23:55.161 : Глава 14
01:29:03.744 : Глава 15
01:35:46.244 : Глава 16
01:41:45.244 : Глава 17
01:52:30.452 : Глава 18
01:58:02.660 : Глава 19


Name: Подлинная история банды Келли
Artist: Justin Kurzel
Media Kind: Movie
HD Video: 720p
Genre: Триллеры
Release Date: 2020-02-27T08:00:00Z
Long Description: Жизнь знаменитого бандита Неда Келли, от одного упоминания имени которого дрожала вся полиция. О его дерзких ограблениях банков слагали легенды, а за его голову была назначена огромная награда. Один из самых противоречивых персонажей мировой криминальной истории, которого многие считали благородным разбойником и реальным Робином Гудом.
Rating: ru-movie|18+|400|
Studio: Daybreak Pictures, Film Victoria, Film4, La Cinéfacture, Porchlight Films Pty. Ltd., Screen Australia
Cast: Джордж МакКэй, Рассел Кроу, Николас Холт, Эсси Дэвис, Чарли Ханнэм
Director: Justin Kurzel
Producers: Justin Kurzel, Пол Рэнфорд, Хэл Фогель, Лиз Уоттс
Screenwriters: Шон Грант, Питер Кэри
Copyright: © 2020 Volga Film
content ID: 1506266438
iTunes Country: 143469

Скриншоты:


Все одноименные релизы в Клубе
Время раздачи: 24/7 (до появления первых 3-5 скачавших)

Релиз подготовлен для просмотра на Apple TV, iPad, iPhone, iPod Touch.
Для просмотра данного релиза на компьютере с ОС Windows рекомендуется использовать VLC media player
True.History.of.the.Kelly.Gang.2019.WEB-DL.720p.NNMClub.m4v.torrent
 Торрент:   Зарегистрирован
 
Зарегистрируйтесь и скачайте торрент!
48,8 KB

Примагнититься
 Зарегистрирован:   23 Апр 2020 23:15:01
 Размер:   4,86 GB  (
 Рейтинг:    (Голосов: 4)
 Поблагодарили:   30
 Проверка:   Оформление проверено модератором 24 Апр 2020 10:54:55
Как cкачать  ·  Как раздать  ·  Правильно оформить  ·  Поднять ратио!  

_________________
«Всё против нас, только ветер навстречу…».
🍏Apple iMac 21.5 (mid 2011) / Intel Core i5 2.7 GHz / AMD Radeon HD 6770M 512 Mb / 12GB DDR3 / Apple Trackpad, Apple Keyboard / macOS High Sierra 10.13.6 (17G13033)
Весельчак У ®
Модератор Apple
Uploader 100+
Стаж: 6 лет 5 мес.
Сообщений: 6085
Ratio: 160,203
Поблагодарили: 196826
93.13%
Откуда: От Москвы недалеко...
ussr.gif
Спасибо TeamHD за предоставленный материал

_________________
«Всё против нас, только ветер навстречу…».
🍏Apple iMac 21.5 (mid 2011) / Intel Core i5 2.7 GHz / AMD Radeon HD 6770M 512 Mb / 12GB DDR3 / Apple Trackpad, Apple Keyboard / macOS High Sierra 10.13.6 (17G13033)
Показать сообщения:   
Начать новую тему   Ответить на тему    Торрент-трекер NNM-Club -> Аудио и Видео -> Зарубежное видео HD для устройств Apple Часовой пояс: GMT + 3
Страница 1 из 1