Классический форум-трекер
canvas not supported
Нас вместе: 4 114 607

Цирк / The Circus (1928) BDrip [720p] ATV


 
 
RSS
Начать новую тему   Ответить на тему    Торрент-трекер NNM-Club -> Аудио и Видео -> Зарубежное видео HD для устройств Apple
Автор Сообщение
Весельчак У ®
Модератор Apple
Uploader 100+
Стаж: 6 лет 5 мес.
Сообщений: 6098
Ratio: 160,468
Поблагодарили: 197246
93.13%
Откуда: От Москвы недалеко...
ussr.gif
Цирк / The Circus (1928) BDrip [720p] ATV«Charlie Chaplin in the Greatest Picture of His Entire Career...»
Производство: США / Charles Chaplin Productions
Жанр: Mелодрама, комедия

Режиссер: Чарльз Чаплин
Продюсер: Чарли Чаплин
Актеры: Чарли Чаплин, Мерна Кеннеди, Аль Эрнест Гарсиа, Гарри Крокер, Джордж Дэвис, Генри Бергман, Тайни Сэндфорд, Джон Рэнд, Стив Мерфи, Док Стоун

Описание:
Грустная комедия о приключениях Чарли в составе гастролирующего цирка. «Цирк» одна из самых популярных и удачных его картин, где редкое сочетание комического с лирическим, талант сатирика, изобличающего все, что мешает людям, нашли зримое воплощение.


Возраст: 0+ (для любой зрительской аудитории)
Рейтинг MPAA: G (нет возрастных ограничений)

Релиз от: NNMCLub

Продолжительность: 01:12:43
Качество видео: BDRip 720p
Перевод: Немой
Субтитры: Русские (вшитые, отключаемые)

Видео: H.264, 958x720 (4:3), ~6967 kbps, 23.976 fps
Аудио#1: AAC, 2.0 ch, 197 Kbps - English
Аудио#2: AAC-3, 6.0 ch, 640 Kbps - English

Общее
Полное имя : /Volumes/HDD/Movies/NNMClub/The.Circus.1928.BDrip.720p.NNMClub.m4v
Формат : MPEG-4
Идентификатор кодека : M4V (M4V /M4A /mp42/isom)
Размер файла : 3,92 Гбайт
Продолжительность : 1 ч. 11 м.
Режим общего битрейта : Переменный
Общий поток : 7 813 Кбит/сек
Название фильма : Цирк
Исполнитель : Charlie Chaplin
Режиссёр : Charlie Chaplin
Исполнитель : Charlie Chaplin / Al Ernest Garcia / Merna Kennedy / Harry Crocker / George Davis / Henry Bergman / Tiny Sandford / John Rand / Steve Murphy
Сценарист : Charlie Chaplin
Продюсер : Charlie Chaplin
Студия-производитель : Charles Chaplin Productions
Жанр : комедия, мелодрама
Тип содержимого : Short Film
Дата записи : UTC 1928-01-06 12:00:00
Дата кодирования : UTC 2020-04-25 16:34:54
Дата пометки : UTC 2020-04-25 16:37:25
Обложка : Yes
LongDescription : Грустная комедия о приключениях Чарли в составе гастролирующего цирка. «Цирк» одна из самых популярных и удачных его картин, где редкое сочетание комического с лирическим, талант сатирика, изобличающего все, что мешает людям, нашли зримое воплощение.
ContentRating : mpaa|G|100|

Видео #1
Идентификатор : 1
Формат : AVC
Формат/Информация : Advanced Video Codec
Профиль формата : High@L4.1
Настройки формата : CABAC / 11 Ref Frames
Параметр CABAC формата : Да
Параметр ReFrames формата : 11 кадров
Идентификатор кодека : avc1
Идентификатор кодека/Информация : Advanced Video Coding
Продолжительность : 1 ч. 11 м.
Битрейт : 6 967 Кбит/сек
Ширина : 958 пикселей
Высота : 720 пикселей
Соотношение сторон : 4:3
Режим частоты кадров : Переменный
Частота кадров : 23,976 (24000/1001) кадра/сек
Минимальная частота кадров : 23,810 кадра/сек
Максимальная частота кадров : 24,390 кадра/сек
Цветовое пространство : YUV
Субдискретизация насыщенности : 4:2:0
Битовая глубина : 8 бит
Тип развёртки : Прогрессивная
Бит/(Пиксели*Кадры) : 0.421
Размер потока : 3,49 Гбайт (89%)
Библиотека кодирования : x264 core 122 r2184kMod 5c85e0a
Настройки программы : cabac=1 / ref=11 / deblock=1:-3:-3 / analyse=0x3:0x113 / me=umh / subme=11 / psy=1 / fade_compensate=0.00 / psy_rd=1.00:0.00 / mixed_ref=1 / me_range=48 / chroma_me=1 / trellis=2 / 8x8dct=1 / cqm=0 / deadzone=21,11 / fast_pskip=1 / chroma_qp_offset=-2 / threads=12 / sliced_threads=0 / nr=0 / decimate=1 / interlaced=0 / bluray_compat=0 / constrained_intra=0 / bframes=8 / b_pyramid=2 / b_adapt=2 / b_bias=0 / direct=1 / weightb=1 / open_gop=0 / weightp=2 / keyint=250 / keyint_min=23 / scenecut=40 / intra_refresh=0 / rc_lookahead=60 / rc=crf / mbtree=1 / crf=17.4000 / qcomp=0.75 / qpmin=0 / qpmax=69 / qpstep=4 / vbv_maxrate=50000 / vbv_bufsize=62500 / crf_max=0.0 / nal_hrd=none / ip_ratio=1.40 / aq=3:0.80
Язык : English
Дата кодирования : UTC 2020-04-25 16:34:54
Дата пометки : UTC 2020-04-25 16:37:16
Цветовой диапазон : Limited
Коэффициенты матрицы : BT.709
Menus : 5,6
Codec configuration box : avcC

Видео #2
Идентификатор : 6
Формат : JPEG
Идентификатор кодека : jpeg
Продолжительность : 1 ч. 11 м.
Вид битрейта : Переменный
Битрейт : 1 727 бит/сек
Ширина : 640 пикселей
Высота : 481 пикселей
Соотношение сторон : 4:3
Режим частоты кадров : Переменный
Частота кадров : 0,003 кадр/сек
Минимальная частота кадров : 0,001 кадр/сек
Максимальная частота кадров : 0,009 кадр/сек
Цветовое пространство : YUV
Субдискретизация насыщенности : 4:2:0
Битовая глубина : 8 бит
Метод сжатия : С потерями
Бит/(Пиксели*Кадры) : 1.870
Размер потока : 843 Кбайт (0%)
Язык : English
Default : Нет
Дата кодирования : UTC 2020-04-25 16:37:25
Дата пометки : UTC 2020-04-25 16:37:25
Menu For : 1
ColorSpace_ICC : RGB

Аудио #1
Идентификатор : 2
Формат : AAC LC
Формат/Информация : Advanced Audio Codec Low Complexity
Идентификатор кодека : mp4a-40-2
Продолжительность : 1 ч. 11 м.
Вид битрейта : Переменный
Битрейт : 197 Кбит/сек
Максимальный битрейт : 329 Кбит/сек
Каналы : 2 канала
Channel layout : L R
Частота : 48,0 КГц
Частота кадров : 46,875 кадров/сек (1024 SPF)
Метод сжатия : С потерями
Размер потока : 101 Мбайт (3%)
Язык : English
Default : Да
Alternate group : 1
Дата кодирования : UTC 2020-04-25 16:34:54
Дата пометки : UTC 2020-04-25 16:37:16
Fallback From : 3
tagc : public.main-program-content

Аудио #2
Идентификатор : 3
Формат : AC-3
Формат/Информация : Audio Coding 3
Коммерческое название : Dolby Digital
Идентификатор кодека : ac-3
Продолжительность : 1 ч. 11 м.
Вид битрейта : Постоянный
Битрейт : 640 Кбит/сек
Каналы : 6 каналов
Channel layout : L R C LFE Ls Rs
Частота : 48,0 КГц
Частота кадров : 31,250 кадров/сек (1536 SPF)
Метод сжатия : С потерями
Размер потока : 329 Мбайт (8%)
Язык : English
Service kind : Complete Main
Default : Inherited From: 2
Alternate group : 1
Дата кодирования : UTC 2020-04-25 16:34:54
Дата пометки : UTC 2020-04-25 16:37:16
Fallback To : 2
tagc : public.main-program-content

Текст
Идентификатор : 4
Формат : Timed Text
Режим смешивания : sbtl
Идентификатор кодека : tx3g
Продолжительность : 1 ч. 11 м.
Вид битрейта : Переменный
Битрейт : 16 бит/сек
Размер потока : 8,31 Кбайт (0%)
Язык : Russian
Default : Да
Forced : Нет
Alternate group : 2
Дата кодирования : UTC 2020-04-25 16:34:54
Дата пометки : UTC 2020-04-25 16:37:16
tagc : public.main-program-content

Меню
Идентификатор : 5
Идентификатор кодека : text
Продолжительность : 1 ч. 11 м.
Язык : English
Дата кодирования : UTC 2020-04-25 16:37:16
Дата пометки : UTC 2020-04-25 16:37:16
Menu For : 1
00:00:00.000 : Chapter 1
00:01:51.110 : Chapter 2
00:07:30.450 : Chapter 3
00:14:26.866 : Chapter 4
00:20:02.201 : Chapter 5
00:27:30.648 : Chapter 6
00:30:14.813 : Chapter 7
00:34:17.055 : Chapter 8
00:41:05.463 : Chapter 9
00:45:55.753 : Chapter 10
00:52:20.137 : Chapter 11
01:04:59.896 : Chapter 12


Name: Цирк
Artist: Charlie Chaplin
Media Kind: Movie
Genre: комедия, мелодрама
Release Date: 1928-01-06T12:00:00Z
Long Description: Грустная комедия о приключениях Чарли в составе гастролирующего цирка. «Цирк» одна из самых популярных и удачных его картин, где редкое сочетание комического с лирическим, талант сатирика, изобличающего все, что мешает людям, нашли зримое воплощение.
Rating: mpaa|G|100|
Studio: Charles Chaplin Productions
Cast: Charlie Chaplin, Al Ernest Garcia, Merna Kennedy, Harry Crocker, George Davis, Henry Bergman, Tiny Sandford, John Rand, Steve Murphy
Director: Charlie Chaplin
Producers: Charlie Chaplin
Screenwriters: Charlie Chaplin
Encoding Tool: HandBrake 1.3.1 2020010400

Скриншоты:


Все одноименные релизы в Клубе
Время раздачи: 24/7 (до появления первых 3-5 скачавших)

Релиз подготовлен для просмотра на Apple TV, iPad, iPhone, iPod Touch.
Для просмотра данного релиза на компьютере с ОС Windows рекомендуется использовать VLC media player
The.Circus.1928.BDrip.720p.NNMClub.m4v.torrent
 Торрент:   Зарегистрирован
 
Зарегистрируйтесь и скачайте торрент!
39,4 KB
Free Leech
Примагнититься
 Зарегистрирован:   25 Апр 2020 19:56:19
 Размер:   3,92 GB  (
 Рейтинг:   4,7 (Голосов: 12)
 Поблагодарили:   53
 Проверка:   Оформление проверено модератором 25 Апр 2020 20:55:55
Как cкачать  ·  Как раздать  ·  Правильно оформить  ·  Поднять ратио!  

_________________
«Всё против нас, только ветер навстречу…».
🍏Apple iMac 21.5 (mid 2011) / Intel Core i5 2.7 GHz / AMD Radeon HD 6770M 512 Mb / 12GB DDR3 / Apple Trackpad, Apple Keyboard / macOS High Sierra 10.13.6 (17G13033)
Показать сообщения:   
Начать новую тему   Ответить на тему    Торрент-трекер NNM-Club -> Аудио и Видео -> Зарубежное видео HD для устройств Apple Часовой пояс: GMT + 3
Страница 1 из 1