Классический форум-трекер
canvas not supported
Нас вместе: 4 113 563

Violet Evergarden Gaiden: Eien to Jidou Shuki Ningyou / Виолетта Эвергарден: Вечность и самопишущая кукла [2019, MV] BDRemux 1080p raw


 
 
RSS
Начать новую тему   Ответить на тему    Торрент-трекер NNM-Club -> Аниме разное -> Аниме Blu-ray, Remux
Автор Сообщение
kvaking ®
RG Аниме
Uploader 100+
 
Стаж: 9 лет 9 мес.
Сообщений: 2704
Ratio: 245,032
Раздал: 389,3 TB
Поблагодарили: 18085
100%
Откуда: Осака
roody.gif
ヴァイオレット・エヴァーガーデン 外伝 -永遠と自動手記人形-
Violet Evergarden Gaiden: Eien to Jidou Shuki Ningyou
Gekijouban Violet Evergarden: Eien to Jidou Shuki Ningyou
Violet Evergarden: Eternity and the Auto Memories Doll
Виолетта Эвергарден: Вечность и самопишущая кукла

Жанр: приключения, драма
Продолжительность: ~100 мин
Качество видео: BDRemux
Дата премьеры / период выхода: 06.09.2019

Производство/студия:

Режиссер: Фудзита Харука

Битрейт видео: ~35.9 Mb/s
Формат видио: MKV
Размер кадра: 1920x1080
Аудио: PCM 5.1, 4 608 kb/s
Язык озвучки: Японский
Язык субтитров: Русский [nnm-club^anime]

Описание:
В "Вечности" Виолетта Эвергарден не является главной героиней — она выполняет роль помощницы при молодой девушке Изабелле Йорк, которую должна обучить аристократическим манерам. У Изабеллы (Эми Бартлет в прошлом) была трудная юность, и поэтому характер сформировался отнюдь не кроткий для будущей леди. Она сначала принимает постоянные выдержку и спокойствие Виолетты за чопорность и спесь, но постепенно понимает, что на самом деле это умение владеть собой, натренированное такой же нелёгкой жизнью.

Картина сюжетно распадается на две равные части — во второй рассказывается о названной младшей сестре Изабеллы, в судьбе которой по воле случая (или неизбежности?) принимают участие Виолетта и её коллеги по работе. Девочка становится как бы воспитанницей почтовой компании "Самопишущие Куклы" и в будущем непременно встретится с той, кто спасла её от голодной смерти.

Это прекрасный, хотя и слегка старомодный фильм стилистически выполнен безукоризненно и является органичным продолжением сериала.
[align=right]© Karasu-san, World-Art


Ссылки:

Скриншоты:
Код: выделить все
General
Unique ID                      : 253943648750915695688060438708183925718 (0xBF0BC48A0F7558A9863B6D0EB81C83D6)
Complete name                  : I:\Gekijouban Violet Evergarden\[Double-Raws] Gekijouban Violet Evergarden (BDRemux 1920x804 x264 PCM).mkv
Format                         : Matroska
Format version                 : Version 2
File size                      : 22.8 GiB
Duration                       : 1 h 30 min
Overall bit rate mode          : Variable
Overall bit rate               : 35.9 Mb/s
Encoded date                   : UTC 2020-04-27 16:05:06
Writing application            : mkvmerge v7.8.0 ('River Man') 32bit built on Apr  3 2015 12:11:22
Writing library                : libebml v1.3.1 + libmatroska v1.4.2

Video
ID                             : 1
Format                         : AVC
Format/Info                    : Advanced Video Codec
Format profile                 : High@L4.1
Format settings                : CABAC / 4 Ref Frames
Format settings, CABAC         : Yes
Format settings, Reference fra : 4 frames
Format settings, GOP           : M=1, N=12
Codec ID                       : V_MPEG4/ISO/AVC
Duration                       : 1 h 30 min
Bit rate mode                  : Variable
Bit rate                       : 30.6 Mb/s
Maximum bit rate               : 34.0 Mb/s
Width                          : 1 920 pixels
Height                         : 1 080 pixels
Display aspect ratio           : 16:9
Frame rate mode                : Constant
Frame rate                     : 23.976 (24000/1001) FPS
Color space                    : YUV
Chroma subsampling             : 4:2:0
Bit depth                      : 8 bits
Scan type                      : Progressive
Bits/(Pixel*Frame)             : 0.616
Stream size                    : 19.4 GiB (85%)
Default                        : Yes
Forced                         : No

Audio
ID                             : 2
Format                         : PCM
Format settings                : Little / Signed
Codec ID                       : A_PCM/INT/LIT
Duration                       : 1 h 30 min
Bit rate mode                  : Constant
Bit rate                       : 4 608 kb/s
Channel(s)                     : 6 channels
Sampling rate                  : 48.0 kHz
Bit depth                      : 16 bits
Stream size                    : 2.92 GiB (13%)
Default                        : Yes
Forced                         : No
Другие раздачи:
Violet Evergarden Gaiden: Eien to Jidou Shuki Ningyou: BDRip 1080p HEVC 10bit, BDRemux.

Время раздачи: 24/7
[NNMClub.to]_Gekijouban Violet Evergarden (BDRemux).torrent
 Торрент: Платиновая раздача  Зарегистрирован
 
Скачать


Примагнититься
 Зарегистрирован:   28 Апр 2020 12:48:56
 Размер:   22,8 GB  (
 Рейтинг:   5 (Голосов: 12)
 Поблагодарили:   23
 Проверка:   Оформление проверено модератором 28 Апр 2020 12:53:27
Не забывайте поблагодарить релизера, нажав на клавишу Спасибо!
Вам не сложно, а мне приятно. =)
Как cкачать  ·  Как раздать  ·  Правильно оформить  ·  Поднять ратио!  

_________________

[Double-Raws] - Да начнётся война за качество!
Тестер нового формата.
kvaking ®
RG Аниме
Uploader 100+
 
Стаж: 9 лет 9 мес.
Сообщений: 2704
Ratio: 245,032
Раздал: 389,3 TB
Поблагодарили: 18085
100%
Откуда: Осака
roody.gif
Торрент файл был обновлён! Во избежание лишней перекачки переименуйте
файл (MKV) в: [Double-Raws] Violet Evergarden Gaiden Eien to Jidou Shuki Ningyou (BDRemux 1920x1080 x264 PCM)
.
Саб был обновлён! (вынужденная перекачка ASS файла.)

_________________

[Double-Raws] - Да начнётся война за качество!
Тестер нового формата.
MegaBars
Стаж: 6 лет 8 мес.
Сообщений: 14
Ratio: 24,11
Поблагодарили: 63
100%
pirates.png
kvaking
Большое спасибо за отличную раздачу! :респект:
Показать сообщения:   
Начать новую тему   Ответить на тему    Торрент-трекер NNM-Club -> Аниме разное -> Аниме Blu-ray, Remux Часовой пояс: GMT + 3
Страница 1 из 1