Классический форум-трекер
canvas not supported
Нас вместе: 4 113 962

Безупречный / Bad Education (2019) WEB-DL [1080p] ATV [MVO]


 
 
RSS
Начать новую тему   Ответить на тему    Торрент-трекер NNM-Club -> Аудио и Видео -> Зарубежное видео HD для устройств Apple
Автор Сообщение
Весельчак У ®
Модератор Apple
Uploader 100+
Стаж: 6 лет 5 мес.
Сообщений: 6003
Ratio: 161,886
Поблагодарили: 195123
93.64%
Откуда: От Москвы недалеко...
ussr.gif
Безупречный / Bad Education (2019) WEB-DL [1080p] ATV«Some People Learn the Hard Way»
Производство: США / Automatik Entertainment, HBO Films, Sight Unseen Pictures
Жанр: Драма, комедия

Режиссер: Кори Финли
Продюсер: Фред Бергер, Брайан Кэвэна-Джонс, Джулия Лебедев
Актеры: Хью Джекман, Эллисон Джэнни, Алекс Вулф, Кэтрин Нардуччи, Аннали Эшфорд, Рэй Романо, Джеральдин Висванатхан, Джимми Татро, Кэйли Картер, Стефани Курцуба

Описание:
Фрэнк — умный, сильный и харизматичный директор престижной школы в богатом пригороде Нью-Йорка. Его выпускники с легкостью поступают в лучшие университеты страны, а от родителей и фондов в бюджет льются рекой многомиллионные суммы. Газеты пестрят его фотографиями в компании со знаменитыми политиками и спортсменами, да и сам он ведет исключительно роскошный образ жизни. Но стоит только позволить своим секретам стать достоянием общественности, и его безупречная репутация может рассыпаться как карточный домик.


Возраст: 18+ (зрителям, достигшим 18 лет. запрещено для детей)
Дата мировой премьеры: 8 сентября 2019
Дата российской премьеры: 26 апреля 2020

Релиз от: NNMCLub

Продолжительность: 01:48:37
Качество видео: WEB-DL 1080р (Amazon)
Перевод: Профессиональный многоголосый (Novamedia)
Субтитры: Русские (Forced), английские (SDH)

Видео: H.264, 1920x817 (2.35:1), ~9231 kbps, 23.976 fps
Аудио#1: AAC, 2.0 ch, 180 Kbps - Русский MVO, Novamedia
Аудио#2: AAC, 2.0 ch, 180 Kbps - English Original
Аудио#3: AC3, 6.0 ch, 384 Kbps - Русский MVO, Novamedia
Аудио#4: AC3, 6.0 ch, 448 Kbps - English Original

Общее
Полное имя : /Volumes/HDD/Movies/NNMClub/Bad.Education.2019.WEB-DL.1080p.m4v
Формат : MPEG-4
Идентификатор кодека : M4V (M4V /M4A /mp42/isom)
Размер файла : 7,90 Гбайт
Продолжительность : 1 ч. 48 м.
Режим общего битрейта : Переменный
Общий поток : 10,4 Мбит/сек
Название фильма : Безупречный
Исполнитель : Cory Finley
Композитор : Michael Abels
Режиссёр : Cory Finley
Исполнитель : Hugh Jackman / Allison Janney / Geraldine Viswanathan / Alex Wolff / Rafael Casal / Stephen Spinella / Annaleigh Ashford / Ray Romano / Hari Dhillon / Jeremy Shamos / Stephanie Kurtzuba / Catherine Curtin / Kathrine Narducci / Ray Abruzzo / Kayli Carter / Jimmy Tatro / John Scurti / Welker White / Peter Appel / Will Meyers / Pat Healy / Finnerty Steeves / Doris McCarthy / Giuseppe Ardizzone / Lauren Yaffe / Calvin Coakley / Sung Yun Cho / Justin Swain / Laura Patinkin / Tia DeShazor / Victor Verhaeghe / Brian Sgambati / Darlene Violette / Natasha Goss / Jorge Chapa / Jane Brockman / Larry Romano / Madeleine Grace Pace
Сценарист : Robert Kolker / Mike Makowsky
Продюсер : Oren Moverman / Brian Kavanaugh-Jones / Eddie Vaisman / Julia Lebedev / Fred Berger / Mike Makowsky
Исполнительный продюсер : Leonid Lebedev, Caroline Jaczko
Студия-производитель : Sight Unseen Pictures, Automatik Entertainment, HBO Films, Slater Hall Pictures
Жанр : комедия, драма
Тип содержимого : Short Film
Дата записи : UTC 2020-04-25 12:00:00
Дата кодирования : UTC 2020-04-28 08:57:34
Дата пометки : UTC 2020-04-28 09:00:26
Обложка : Yes
LongDescription : Фрэнк — умный, сильный и харизматичный директор престижной школы в богатом пригороде Нью-Йорка. Его выпускники с легкостью поступают в лучшие университеты страны, а от родителей и фондов в бюджет льются рекой многомиллионные суммы. Газеты пестрят его фотографиями в компании со знаменитыми политиками и спортсменами, да и сам он ведет исключительно роскошный образ жизни. Но стоит только позволить своим секретам стать достоянием общественности, и его безупречная репутация может рассыпаться как карточный домик.

Видео
Идентификатор : 1
Формат : AVC
Формат/Информация : Advanced Video Codec
Профиль формата : High@L4
Настройки формата : CABAC / 4 Ref Frames
Параметр CABAC формата : Да
Параметр ReFrames формата : 4 кадра
Идентификатор кодека : avc1
Идентификатор кодека/Информация : Advanced Video Coding
Продолжительность : 1 ч. 48 м.
Вид битрейта : Постоянный
Битрейт : 9 231 Кбит/сек
Номинальный битрейт : 10 000 Кбит/сек
Ширина : 1 920 пикселей
Высота : 816 пикселей
Соотношение сторон : 2,35:1
Соотношение сторон в оригинале : 2,35:1
Режим частоты кадров : Переменный
Частота кадров : 23,976 (24000/1001) кадра/сек
Минимальная частота кадров : 23,810 кадра/сек
Максимальная частота кадров : 24,390 кадра/сек
Цветовое пространство : YUV
Субдискретизация насыщенности : 4:2:0
Битовая глубина : 8 бит
Тип развёртки : Прогрессивная
Бит/(Пиксели*Кадры) : 0.246
Размер потока : 7,00 Гбайт (89%)
Язык : English
Дата кодирования : UTC 2020-04-28 08:57:34
Дата пометки : UTC 2020-04-28 09:00:25
Цветовой диапазон : Limited
Основные цвета : BT.709
Характеристики трансфера : BT.709
Коэффициенты матрицы : BT.709
Codec configuration box : avcC

Аудио #1
Идентификатор : 2
Формат : AAC LC
Формат/Информация : Advanced Audio Codec Low Complexity
Идентификатор кодека : mp4a-40-2
Продолжительность : 1 ч. 44 м.
Вид битрейта : Переменный
Битрейт : 182 Кбит/сек
Максимальный битрейт : 286 Кбит/сек
Каналы : 2 канала
Channel layout : L R
Частота : 48,0 КГц
Частота кадров : 46,875 кадров/сек (1024 SPF)
Метод сжатия : С потерями
Размер потока : 136 Мбайт (2%)
Язык : Russian
Default : Да
Alternate group : 1
Дата кодирования : UTC 2020-04-28 08:57:34
Дата пометки : UTC 2020-04-28 09:00:25
Fallback From : 4
tagc : public.main-program-content

Аудио #2
Идентификатор : 3
Формат : AAC LC
Формат/Информация : Advanced Audio Codec Low Complexity
Идентификатор кодека : mp4a-40-2
Продолжительность : 1 ч. 48 м.
Продолжительность оригинала : 1 ч. 48 м.
Вид битрейта : Переменный
Битрейт : 179 Кбит/сек
Максимальный битрейт : 292 Кбит/сек
Каналы : 2 канала
Channel layout : L R
Частота : 48,0 КГц
Частота кадров : 46,875 кадров/сек (1024 SPF)
Метод сжатия : С потерями
Размер потока : 139 Мбайт (2%)
Размер потока оригинала : 139 Мбайт (2%)
Язык : English
Default : Нет
Alternate group : 1
Дата кодирования : UTC 2020-04-28 08:57:34
Дата пометки : UTC 2020-04-28 09:00:24
Fallback From : 5
tagc : public.main-program-content

Аудио #3
Идентификатор : 4
Формат : AC-3
Формат/Информация : Audio Coding 3
Коммерческое название : Dolby Digital
Идентификатор кодека : ac-3
Продолжительность : 1 ч. 44 м.
Вид битрейта : Постоянный
Битрейт : 384 Кбит/сек
Каналы : 6 каналов
Channel layout : L R C LFE Ls Rs
Частота : 48,0 КГц
Частота кадров : 31,250 кадров/сек (1536 SPF)
Метод сжатия : С потерями
Размер потока : 286 Мбайт (4%)
Язык : Russian
Service kind : Complete Main
Default : Inherited From: 2
Alternate group : 1
Дата кодирования : UTC 2020-04-28 08:57:34
Дата пометки : UTC 2020-04-28 09:00:25
Fallback To : 2
tagc : public.main-program-content

Аудио #4
Идентификатор : 5
Формат : AC-3
Формат/Информация : Audio Coding 3
Коммерческое название : Dolby Digital
Идентификатор кодека : ac-3
Продолжительность : 1 ч. 48 м.
Вид битрейта : Постоянный
Битрейт : 448 Кбит/сек
Каналы : 6 каналов
Channel layout : L R C LFE Ls Rs
Частота : 48,0 КГц
Частота кадров : 31,250 кадров/сек (1536 SPF)
Метод сжатия : С потерями
Размер потока : 348 Мбайт (4%)
Язык : English
Service kind : Complete Main
Default : Нет
Alternate group : 1
Дата кодирования : UTC 2020-04-28 08:57:34
Дата пометки : UTC 2020-04-28 09:00:24
Fallback To : 3
tagc : public.main-program-content

Текст #1
Идентификатор : 6
Формат : Timed Text
Режим смешивания : sbtl
Идентификатор кодека : tx3g
Продолжительность : 1 ч. 42 м.
Вид битрейта : Переменный
Битрейт : 3 бит/сек
Размер потока : 2,34 Кбайт (0%)
Язык : Russian
Default : Да
Forced : Нет
Alternate group : 2
Дата кодирования : UTC 2020-04-28 08:57:34
Дата пометки : UTC 2020-04-28 09:00:25
tagc : public.subtitles.forced-only

Текст #2
Идентификатор : 7
Формат : Timed Text
Режим смешивания : sbtl
Идентификатор кодека : tx3g
Продолжительность : 1 ч. 45 м.
Вид битрейта : Переменный
Битрейт : 82 бит/сек
Размер потока : 63,8 Кбайт (0%)
Язык : English
Default : Нет
Forced : Нет
Alternate group : 2
Дата кодирования : UTC 2020-04-28 08:57:34
Дата пометки : UTC 2020-04-28 09:00:25
tagc : public.main-program-content

Текст #3
Идентификатор : 8
Формат : Timed Text
Режим смешивания : sbtl
Идентификатор кодека : tx3g
Продолжительность : 1 ч. 47 м.
Вид битрейта : Переменный
Битрейт : 81 бит/сек
Размер потока : 64,1 Кбайт (0%)
Язык : English
Default : Нет
Forced : Нет
Alternate group : 2
Дата кодирования : UTC 2020-04-28 08:57:34
Дата пометки : UTC 2020-04-28 09:00:25
tagc : public.accessibility.transcribes-spoken-dialog


Name: Безупречный
Artist: Cory Finley
Media Kind: Movie
HD Video: 1080p
Genre: комедия, драма
Release Date: 2020-04-25T12:00:00Z
Long Description: Фрэнк — умный, сильный и харизматичный директор престижной школы в богатом пригороде Нью-Йорка. Его выпускники с легкостью поступают в лучшие университеты страны, а от родителей и фондов в бюджет льются рекой многомиллионные суммы. Газеты пестрят его фотографиями в компании со знаменитыми политиками и спортсменами, да и сам он ведет исключительно роскошный образ жизни. Но стоит только позволить своим секретам стать достоянием общественности, и его безупречная репутация может рассыпаться как карточный домик.
Studio: Sight Unseen Pictures, Automatik Entertainment, HBO Films, Slater Hall Pictures
Cast: Hugh Jackman, Allison Janney, Geraldine Viswanathan, Alex Wolff, Rafael Casal, Stephen Spinella, Annaleigh Ashford, Ray Romano, Hari Dhillon, Jeremy Shamos, Stephanie Kurtzuba, Catherine Curtin, Kathrine Narducci, Ray Abruzzo, Kayli Carter, Jimmy Tatro, John Scurti, Welker White, Peter Appel, Will Meyers, Pat Healy, Finnerty Steeves, Doris McCarthy, Giuseppe Ardizzone, Lauren Yaffe, Calvin Coakley, Sung Yun Cho, Justin Swain, Laura Patinkin, Tia DeShazor, Victor Verhaeghe, Brian Sgambati, Darlene Violette, Natasha Goss, Jorge Chapa, Jane Brockman, Larry Romano, Madeleine Grace Pace
Director: Cory Finley
Producers: Oren Moverman, Brian Kavanaugh-Jones, Eddie Vaisman, Julia Lebedev, Fred Berger, Mike Makowsky
Executive Producer: Leonid Lebedev, Caroline Jaczko
Screenwriters: Robert Kolker, Mike Makowsky
Composer: Michael Abels

Скриншоты:


Все одноименные релизы в Клубе
Время раздачи: 24/7 (до появления первых 3-5 скачавших)

Релиз подготовлен для просмотра на Apple TV, iPad, iPhone, iPod Touch.
Для просмотра данного релиза на компьютере с ОС Windows рекомендуется использовать VLC media player
[NNMClub.to]_Bad.Education.2019.WEB-DL.1080p.m4v.torrent
 Торрент:   Зарегистрирован
 
Зарегистрируйтесь и скачайте торрент!
79,2 KB

Примагнититься
 Зарегистрирован:   28 Апр 2020 12:26:44
 Размер:   7,9 GB  (
 Рейтинг:   4,8 (Голосов: 18)
 Поблагодарили:   104
 Проверка:   Оформление проверено модератором 28 Апр 2020 13:25:23
Как cкачать  ·  Как раздать  ·  Правильно оформить  ·  Поднять ратио!  

_________________
«Всё против нас, только ветер навстречу…».
🍏Apple iMac 21.5 (mid 2011) / Intel Core i5 2.7 GHz / AMD Radeon HD 6770M 512 Mb / 12GB DDR3 / Apple Trackpad, Apple Keyboard / macOS High Sierra 10.13.6 (17G12034)
press227
Стаж: 7 лет 2 мес.
Сообщений: 10
Ratio: 7,13
8.4%
Тема говнотолкателей начинается на 20 минуте. Россомаха уже не тот... :убится ап стену:
Показать сообщения:   
Начать новую тему   Ответить на тему    Торрент-трекер NNM-Club -> Аудио и Видео -> Зарубежное видео HD для устройств Apple Часовой пояс: GMT + 3
Страница 1 из 1