Классический форум-трекер
canvas not supported
Нас вместе: 4 114 611

Сторожка / The Lodge (2019) BDRip [1080p] ATV [AVO]


 
 
RSS
Начать новую тему   Ответить на тему    Торрент-трекер NNM-Club -> Аудио и Видео -> Зарубежное видео HD для устройств Apple
Автор Сообщение
Весельчак У ®
Модератор Apple
Uploader 100+
Стаж: 6 лет 5 мес.
Сообщений: 6098
Ratio: 160,475
Поблагодарили: 197260
93.13%
Откуда: От Москвы недалеко...
ussr.gif
Сторожка / The Lodge (2019) BDRip [1080p] ATV«You're not welcome here»
Производство: Великобритания, Канада, США / FilmNation Entertainment, Hammer Films
Жанр: Ужасы, триллер, драма

Режиссер: Северин Фиала, Вероника Франц
Продюсер: Саймон Оукс, Аарон Райдер, Пол Барбо
Актеры: Ричард Армитедж, Алисия Сильверстоун, Джейден Мартелл, Райли Кио, Лия МакХью, Ребекка Фолкенберри, Кэтлин Уэллс, Лола Рейд

Описание:
Молодая женщина Грейс выходит замуж за журналиста Ричарда, и теперь ей предстоит стать мачехой двоим детям. Чему сами Мия и Эйден не очень-то рады: в отличие от влюбчивого отца они ещё не забыли мать, покончившую с собой после развода. К тому же Грейс — дочь основателя секты, 12 лет назад совершившей массовое самоубийство, поэтому дети считают, что отец променял мать на психопатку. Чтобы Мия и Эйден ближе познакомились с Грейс, Ричард отправляет семейство провести пару дней перед Рождеством в отдаленном от цивилизации доме.


Рейтинг MPAA: R (лицам до 17 лет обязательно присутствие взрослого)
Дата мировой премьеры: 25 января 2019
Дата российской премьеры: 19 мая 2020, «Sony Pictures Home Entertainment»

Релиз от: BadBajo

Продолжительность: 01:48:18
Качество видео: BDRip 1080р
Перевод: Авторский одноголосый (BadBajo)
Субтитры: Английские (вшитые, отключаемые)

Видео: H.264, 1920x1036 (1,85:1), ~11.2 Mbps, 23.976 fps
Аудио#1: AAC, 2.0 ch, 192 Kbps - Русский AVO, BadBajo
Аудио#2: AAC, 2.0 ch, 192 Kbps - English Original
Аудио#3: AC3, 6.0 ch, 640 Kbps - Русский AVO, BadBajo
Аудио#4: AC3, 6.0 ch, 640 Kbps - English Original

Общее
Полное имя : /Volumes/HDD/Movies/NNMClub/The.Lodge.2019.BDrip.1080p.NNMClub.m4v
Формат : MPEG-4
Идентификатор кодека : M4V (M4V /M4A /mp42/isom)
Размер файла : 9,76 Гбайт
Продолжительность : 1 ч. 48 м.
Режим общего битрейта : Переменный
Общий поток : 12,9 Мбит/сек
Название фильма : Сторожка
Исполнитель : Veronika Franz, Severin Fiala
Режиссёр : Veronika Franz / Severin Fiala
Исполнитель : Richard Armitage / Alicia Silverstone / Riley Keough / Jaeden Martell / Lia McHugh / Rebecca Faulkenberry / Katelyn Wells / Danny Keough / Lola Reid
Сценарист : Veronika Franz / Sergio Casci / Severin Fiala
Продюсер : Aaron Ryder / Simon Oakes / Marc Schipper
Исполнительный продюсер : Xavier Marchand, Ben Browning, Marc Schipper, Milan Popelka, Alison Cohen, Brad Zimmerman
Студия-производитель : FilmNation Entertainment, Hammer Film Productions
Жанр : драма, ужасы, триллер
Тип содержимого : Short Film
Дата записи : UTC 2019-12-06 12:00:00
Дата кодирования : UTC 2020-04-28 12:03:46
Дата пометки : UTC 2020-04-28 12:57:07
Обложка : Yes
LongDescription : Молодая женщина Грейс выходит замуж за журналиста Ричарда, и теперь ей предстоит стать мачехой двоим детям - Мии и Эйдену. Чему сами дети не очень-то рады: в отличие от влюбчивого отца они ещё не забыли мать, покончившую с собой после развода. К тому же Грейс - дочь основателя секты, 12 лет назад совершившей массовое самоубийство, поэтому дети считают, что отец променял мать на психопатку. Чтобы Мия и Эйден ближе познакомились с Грейс, Ричард отправляет семейство провести пару дней перед Рождеством в отдаленном от цивилизации доме.
ContentRating : mpaa|R|400|

Видео #1
Идентификатор : 1
Формат : AVC
Формат/Информация : Advanced Video Codec
Профиль формата : High@L4.1
Настройки формата : CABAC / 4 Ref Frames
Параметр CABAC формата : Да
Параметр ReFrames формата : 4 кадра
Идентификатор кодека : avc1
Идентификатор кодека/Информация : Advanced Video Coding
Продолжительность : 1 ч. 48 м.
Битрейт : 11,2 Мбит/сек
Ширина : 1 920 пикселей
Высота : 1 036 пикселей
Соотношение сторон : 1,85:1
Режим частоты кадров : Переменный
Частота кадров : 23,976 (24000/1001) кадра/сек
Минимальная частота кадров : 23,810 кадра/сек
Максимальная частота кадров : 24,390 кадра/сек
Цветовое пространство : YUV
Субдискретизация насыщенности : 4:2:0
Битовая глубина : 8 бит
Тип развёртки : Прогрессивная
Бит/(Пиксели*Кадры) : 0.235
Размер потока : 8,49 Гбайт (87%)
Библиотека кодирования : x264 core 160 r3000 33f9e14
Настройки программы : cabac=1 / ref=4 / deblock=1:-3:-3 / analyse=0x3:0x133 / me=umh / subme=9 / psy=1 / psy_rd=1.00:0.00 / mixed_ref=1 / me_range=16 / chroma_me=1 / trellis=2 / 8x8dct=1 / cqm=0 / deadzone=21,11 / fast_pskip=1 / chroma_qp_offset=-2 / threads=32 / lookahead_threads=2 / sliced_threads=0 / nr=0 / decimate=1 / interlaced=0 / bluray_compat=0 / constrained_intra=0 / bframes=3 / b_pyramid=2 / b_adapt=2 / b_bias=0 / direct=3 / weightb=1 / open_gop=0 / weightp=2 / keyint=250 / keyint_min=23 / scenecut=40 / intra_refresh=0 / rc_lookahead=60 / rc=crf / mbtree=1 / crf=17.0 / qcomp=0.60 / qpmin=0 / qpmax=69 / qpstep=4 / ip_ratio=1.40 / aq=1:1.00
Язык : English
Дата кодирования : UTC 2020-04-28 12:03:46
Дата пометки : UTC 2020-04-28 12:56:42
Menus : 7,8
Codec configuration box : avcC

Видео #2
Идентификатор : 8
Формат : JPEG
Идентификатор кодека : jpeg
Продолжительность : 1 ч. 48 м.
Вид битрейта : Переменный
Битрейт : 274 бит/сек
Ширина : 640 пикселей
Высота : 345 пикселей
Соотношение сторон : 1,85:1
Режим частоты кадров : Переменный
Частота кадров : 0,001 кадр/сек
Минимальная частота кадров : 0,001 кадр/сек
Максимальная частота кадров : 0,003 кадр/сек
Цветовое пространство : YUV
Субдискретизация насыщенности : 4:2:0
Битовая глубина : 8 бит
Метод сжатия : С потерями
Бит/(Пиксели*Кадры) : 1.241
Размер потока : 268 Кбайт (0%)
Язык : English
Default : Нет
Дата кодирования : UTC 2020-04-28 12:57:06
Дата пометки : UTC 2020-04-28 12:57:07
Menu For : 1
ColorSpace_ICC : RGB

Аудио #1
Идентификатор : 2
Формат : AAC LC
Формат/Информация : Advanced Audio Codec Low Complexity
Идентификатор кодека : mp4a-40-2
Продолжительность : 1 ч. 48 м.
Вид битрейта : Переменный
Битрейт : 192 Кбит/сек
Максимальный битрейт : 334 Кбит/сек
Каналы : 2 канала
Channel layout : L R
Частота : 48,0 КГц
Частота кадров : 46,875 кадров/сек (1024 SPF)
Метод сжатия : С потерями
Размер потока : 148 Мбайт (1%)
Язык : Russian
Default : Да
Alternate group : 1
Дата кодирования : UTC 2020-04-28 12:03:46
Дата пометки : UTC 2020-04-28 12:56:42
Fallback From : 4
tagc : public.main-program-content

Аудио #2
Идентификатор : 3
Формат : AAC LC
Формат/Информация : Advanced Audio Codec Low Complexity
Идентификатор кодека : mp4a-40-2
Продолжительность : 1 ч. 48 м.
Вид битрейта : Переменный
Битрейт : 192 Кбит/сек
Максимальный битрейт : 333 Кбит/сек
Каналы : 2 канала
Channel layout : L R
Частота : 48,0 КГц
Частота кадров : 46,875 кадров/сек (1024 SPF)
Метод сжатия : С потерями
Размер потока : 150 Мбайт (2%)
Язык : English
Default : Нет
Alternate group : 1
Дата кодирования : UTC 2020-04-28 12:03:46
Дата пометки : UTC 2020-04-28 12:56:42
Fallback From : 5
tagc : public.main-program-content

Аудио #3
Идентификатор : 4
Формат : AC-3
Формат/Информация : Audio Coding 3
Коммерческое название : Dolby Digital
Идентификатор кодека : ac-3
Продолжительность : 1 ч. 48 м.
Вид битрейта : Постоянный
Битрейт : 640 Кбит/сек
Каналы : 6 каналов
Channel layout : L R C LFE Ls Rs
Частота : 48,0 КГц
Частота кадров : 31,250 кадров/сек (1536 SPF)
Метод сжатия : С потерями
Размер потока : 496 Мбайт (5%)
Язык : Russian
Service kind : Complete Main
Default : Inherited From: 2
Alternate group : 1
Дата кодирования : UTC 2020-04-28 12:03:46
Дата пометки : UTC 2020-04-28 12:56:42
Fallback To : 2
tagc : public.main-program-content

Аудио #4
Идентификатор : 5
Формат : AC-3
Формат/Информация : Audio Coding 3
Коммерческое название : Dolby Digital
Идентификатор кодека : ac-3
Продолжительность : 1 ч. 48 м.
Вид битрейта : Постоянный
Битрейт : 640 Кбит/сек
Каналы : 6 каналов
Channel layout : L R C LFE Ls Rs
Частота : 48,0 КГц
Частота кадров : 31,250 кадров/сек (1536 SPF)
Метод сжатия : С потерями
Размер потока : 496 Мбайт (5%)
Язык : English
Service kind : Complete Main
Default : Нет
Alternate group : 1
Дата кодирования : UTC 2020-04-28 12:03:46
Дата пометки : UTC 2020-04-28 12:56:42
Fallback To : 3
tagc : public.main-program-content

Текст
Идентификатор : 6
Формат : Timed Text
Режим смешивания : sbtl
Идентификатор кодека : tx3g
Продолжительность : 1 ч. 48 м.
Вид битрейта : Переменный
Битрейт : 41 бит/сек
Размер потока : 32,1 Кбайт (0%)
Язык : English
Default : Да
Forced : Нет
Alternate group : 2
Дата кодирования : UTC 2020-04-28 12:03:46
Дата пометки : UTC 2020-04-28 12:56:42
tagc : public.accessibility.transcribes-spoken-dialog

Меню
Идентификатор : 7
Идентификатор кодека : text
Продолжительность : 1 ч. 48 м.
Язык : English
Дата кодирования : UTC 2020-04-28 12:56:42
Дата пометки : UTC 2020-04-28 12:56:42
Вид битрейта : CBR
Menu For : 1
00:00:00.000 : Chapter 01
00:12:07.894 : Chapter 02
00:23:59.063 : Chapter 03
00:35:26.875 : Chapter 04
00:47:47.490 : Chapter 05
00:59:46.875 : Chapter 06
01:17:27.768 : Chapter 07
01:42:00.948 : Chapter 08
Вид битрейта : Постоянный


Name: Сторожка
Artist: Veronika Franz, Severin Fiala
Media Kind: Movie
HD Video: 1080p
Genre: драма, ужасы, триллер
Release Date: 2019-12-06T12:00:00Z
Long Description: Молодая женщина Грейс выходит замуж за журналиста Ричарда, и теперь ей предстоит стать мачехой двоим детям - Мии и Эйдену. Чему сами дети не очень-то рады: в отличие от влюбчивого отца они ещё не забыли мать, покончившую с собой после развода. К тому же Грейс - дочь основателя секты, 12 лет назад совершившей массовое самоубийство, поэтому дети считают, что отец променял мать на психопатку. Чтобы Мия и Эйден ближе познакомились с Грейс, Ричард отправляет семейство провести пару дней перед Рождеством в отдаленном от цивилизации доме.
Rating: mpaa|R|400|
Studio: FilmNation Entertainment, Hammer Film Productions
Cast: Richard Armitage, Alicia Silverstone, Riley Keough, Jaeden Martell, Lia McHugh, Rebecca Faulkenberry, Katelyn Wells, Danny Keough, Lola Reid
Director: Veronika Franz, Severin Fiala
Producers: Aaron Ryder, Simon Oakes, Marc Schipper
Executive Producer: Xavier Marchand, Ben Browning, Marc Schipper, Milan Popelka, Alison Cohen, Brad Zimmerman
Screenwriters: Veronika Franz, Sergio Casci, Severin Fiala

Скриншоты:


Все одноименные релизы в Клубе
Время раздачи: 24/7 (до появления первых 3-5 скачавших)

Релиз подготовлен для просмотра на Apple TV, iPad, iPhone, iPod Touch.
Для просмотра данного релиза на компьютере с ОС Windows рекомендуется использовать VLC media player
The.Lodge.2019.BDrip.1080p.NNMClub.m4v.torrent
 Торрент: Золотая раздача  Зарегистрирован
 
Зарегистрируйтесь и скачайте торрент!
97,8 KB
Free Leech
Примагнититься
 Зарегистрирован:   28 Апр 2020 16:33:09
 Размер:   9,76 GB  (
 Рейтинг:    (Голосов: 5)
 Поблагодарили:   34
 Проверка:   Оформление проверено модератором 28 Апр 2020 20:55:03
Как cкачать  ·  Как раздать  ·  Правильно оформить  ·  Поднять ратио!  

_________________
«Всё против нас, только ветер навстречу…».
🍏Apple iMac 21.5 (mid 2011) / Intel Core i5 2.7 GHz / AMD Radeon HD 6770M 512 Mb / 12GB DDR3 / Apple Trackpad, Apple Keyboard / macOS High Sierra 10.13.6 (17G13033)
Показать сообщения:   
Начать новую тему   Ответить на тему    Торрент-трекер NNM-Club -> Аудио и Видео -> Зарубежное видео HD для устройств Apple Часовой пояс: GMT + 3
Страница 1 из 1