Классический форум-трекер
canvas not supported
Нас вместе: 4 114 611

Первая передача на НТВ. Автомобильная передача (03.05.2020) WEBRip [H.264/1080p-LQ]


 
 
RSS
Начать новую тему   Ответить на тему    Торрент-трекер NNM-Club -> Документалистика и Телепередачи -> За рулем
Автор Сообщение
Катюша ®
Мне бы в небо!
Стаж: 8 лет 2 мес.
Сообщений: 532
Ratio: 212,113
Поблагодарили: 46687
100%
witch.png
Первая передача на НТВ. Автомобильная передача (03.05.2020) WEBRip

Телекомпания: НТВ
Жанр: Автопередача

Ведущий: Алексей Куличков

Описание:
Дорожный знак - виновник ДТП: на перекрестке столкнулись два автомобиля, а виной всему исчезнувший с одной стороны знак главной дороги. Как суд и сотрудники ДПС трактуют эту правовую коллизию?
Совершил маневр для избежания аварии по встречной полосе с грузовиком и врезался в другой автомобиль: кто из водителей виноват в ДТП?
Распивал алкогольные напитки в автомобиле и слушал музыку: из-за показаний соседа мужчину лишили водительских прав.
Сдал машину в ремонт по ОСАГО, а сроки ремонта, установленные законом, были превышены. Куда обращаться и как получить компенсацию? Можно ли исправить вмятину на автомобиле с помощью пластиковой бутылки?

Релиз от: Катюша
Продолжительность: 00:26:09
Качество видео: WEBRip

Видео: AVC/H.264, 1920x1080, 3757 Kbps
Аудио: AAC, 2 ch, 128 Kbps

Общее
Уникальный идентификатор : 104467879070372675683376342551205496989 (0x4E97C81A664A7D3C44F91E9D2A23C89D)
Полное имя : Первая передача 03052020.mkv
Формат : Matroska
Версия формата : Version 4
Размер файла : 727 Мбайт
Продолжительность : 26 м. 9 с.
Общий поток : 3887 Кбит/сек
Дата кодирования : UTC 2020-05-03 10:49:47
Программа кодирования : mkvmerge v45.0.0 ('Heaven in Pennies') 64-bit
Библиотека кодирования : libebml v1.3.10 + libmatroska v1.5.2

Видео
Идентификатор : 1
Формат : AVC
Формат/Информация : Advanced Video Codec
Профиль формата : High@L4
Настройки формата : CABAC / 3 Ref Frames
Параметр CABAC формата : Да
Параметр RefFrames формата : 3 кадра
Идентификатор кодека : V_MPEG4/ISO/AVC
Продолжительность : 26 м. 9 с.
Битрейт : 3757 Кбит/сек
Ширина : 1920 пикселей
Высота : 1080 пикселей
Соотношение сторон : 16:9
Режим частоты кадров : Постоянный
Частота кадров : 25,000 кадров/сек
Цветовое пространство : YUV
Субдискретизация насыщенности : 4:2:0
Битовая глубина : 8 бит
Тип развёртки : Прогрессивная
Бит/(Пиксели*Кадры) : 0.072
Размер потока : 703 Мбайт (97%)
Default : Да
Forced : Нет
Цветовой диапазон : Limited
Основные цвета : BT.709
Характеристики трансфера : BT.709
Коэффициенты матрицы : BT.709

Аудио
Идентификатор : 2
Формат : AAC LC
Формат/Информация : Advanced Audio Codec Low Complexity
Идентификатор кодека : A_AAC-2
Продолжительность : 26 м. 9 с.
Битрейт : 128 Кбит/сек
Каналы : 2 канала
ChannelLayout : L R
Частота : 44,1 КГц
Частота кадров : 43,066 кадра/сек (1024 SPF)
Метод сжатия : С потерями
Размер потока : 23,9 Мбайт (3%)
Язык : English
Default : Да
Forced : Нет

Скриншоты:


Все одноименные релизы в Клубе
Время раздачи: 24/7. До первых 5 скачавших.
[NNMClub.to]_Pervaya peredacha 03052020.mkv.torrent
 Торрент:   Зарегистрирован
 
Зарегистрируйтесь и скачайте торрент!
14,6 KB
Free Leech
Примагнититься
 Зарегистрирован:   03 Май 2020 13:55:00
 Размер:   727 MB  (
 Рейтинг:   5 (Голосов: 13)
 Поблагодарили:   49
 Проверка:   Оформление проверено модератором 03 Май 2020 14:19:08
Как cкачать  ·  Как раздать  ·  Правильно оформить  ·  Поднять ратио!  

_________________
С годами старые фильмы становятся все лучше, а новые - все хуже.
Показать сообщения:   
Начать новую тему   Ответить на тему    Торрент-трекер NNM-Club -> Документалистика и Телепередачи -> За рулем Часовой пояс: GMT + 3
Страница 1 из 1