Классический форум-трекер
canvas not supported
Нас вместе: 4 113 559

The Rolling Stones - Some Girls (1978) [DSD 128|tracks (Vinyl-Rip)]<Rock>


 
 
RSS
Начать новую тему   Ответить на тему    Торрент-трекер NNM-Club -> HD Audio и Многоканальная Музыка -> Vinyl-Rip и Hand-Made
Автор Сообщение
tegoffs ®
Виниловод. Сталкер
Стаж: 12 лет 4 мес.
Сообщений: 2944
Ratio: 17,668
Поблагодарили: 10162
100%
Откуда: мне знать?
honduras.gif
The Rolling Stones - Some Girls(1978)
Год: 1978
Лейбл: Rolling Stones Records (COC 39108)
Страна: USA
Жанр: Rock
Продолжительность: 00:40:48

Кодек: DSD 128
Тип рипа: tracks
Формат записи: 1/5.6 MHz
Формат раздачи: 1/5.6 MHz

Треклист:
01. Miss You (4:49)
02. When the Whip Comes Down (4:21)
03. Imagination (4:39)
04. Some Girls (4:37)
05. Lies (3:12)
06. Far Away Eyes (4:25)
07. Respectable (3:08)
08. Before They Make Me Run (3:25)
09. Beast of Burden (4:25)
10. Shattered (3:46)
Снято с американского первопресса. Состояние диска нормальное - nm-.
Тракт: AT-OC9/III -> Yamaha GT-750 -> Lehmann Audio Black Cube SE -> Korg MR-2000S (интерконнекты Yamaha и AudioQuest Evergreen).
Без обработки.
Постер и дополнительная информация прописаны в треках.
Ковриков нет, но вполне сносные картинки можно найти по ссылке каталожного номера на дискогс. Отличие этого издания помимо первопрессности еще и в оформлении - на вкладке есть все фотографии, часть из которых потом замазали во всех последующих изданиях. И это стало выглядить вот так:
Код: выделить все
General
Complete name                            : J:\torrents\The Rolling Stones - 1978 - Some Girls\01. Miss You.dsf
Format                                   : DSF
Format/Info                              : Direct Stream Digital Stream File
Format version                           : Version 1
File size                                : 389 MiB
Duration                                 : 4 min 49 s
Overall bit rate                         : 11.3 Mb/s
Album replay gain                        : -3.32 dB
Album replay gain peak                   : 1.221560
Album                                    : Some Girls
Track name                               : Miss You
Track name/Position                      : 1
Track name/Total                         : 10
Performer                                : The Rolling Stones
Publisher                                : https://www.discogs.com/Rolling-Stones-Some-Girls/release/3030024
Genre                                    : Rock
Recorded date                            : 1978-04-29 07:37
Writing library                          : KORG AudioGate ver.4.5.2 (Windows 7)
Cover                                    : Yes
Cover type                               : Cover (front)
Cover MIME                               : image/jpeg
Comment                                  : AT-OC9/III -> Yamaha GT-750 -> Lehmann Audio Black Cube SE -> Korg MR-2000S (интерконнекты Yamaha и AudioQuest Evergreen).

Audio
Format                                   : DSD
Format/Info                              : Direct Stream Digital
Commercial name                          : DSD128
Format settings                          : Little
Duration                                 : 4 min 49 s
Bit rate                                 : 11.3 Mb/s
Channel(s)                               : 2 channels
Channel layout                           : L R
Sampling rate                            : 5 645 kHz
Compression mode                         : Lossless
Replay gain                              : -3.32 dB
Replay gain peak                         : 1.221560
Stream size                              : 389 MiB (100%)

General
Complete name                            : J:\torrents\The Rolling Stones - 1978 - Some Girls\02. When the Whip Comes Down.dsf
Format                                   : DSF
Format/Info                              : Direct Stream Digital Stream File
Format version                           : Version 1
File size                                : 351 MiB
Duration                                 : 4 min 20 s
Overall bit rate                         : 11.3 Mb/s
Album replay gain                        : -3.32 dB
Album replay gain peak                   : 1.221560
Album                                    : Some Girls
Track name                               : When the Whip Comes Down
Track name/Position                      : 2
Track name/Total                         : 10
Performer                                : The Rolling Stones
Publisher                                : https://www.discogs.com/Rolling-Stones-Some-Girls/release/3030024
Genre                                    : Rock
Recorded date                            : 1978-04-29 07:37
Writing library                          : KORG AudioGate ver.4.5.2 (Windows 7)
Cover                                    : Yes
Cover type                               : Cover (front)
Cover MIME                               : image/jpeg
Comment                                  : AT-OC9/III -> Yamaha GT-750 -> Lehmann Audio Black Cube SE -> Korg MR-2000S (интерконнекты Yamaha и AudioQuest Evergreen).

Audio
Format                                   : DSD
Format/Info                              : Direct Stream Digital
Commercial name                          : DSD128
Format settings                          : Little
Duration                                 : 4 min 20 s
Bit rate                                 : 11.3 Mb/s
Channel(s)                               : 2 channels
Channel layout                           : L R
Sampling rate                            : 5 645 kHz
Compression mode                         : Lossless
Replay gain                              : -3.32 dB
Replay gain peak                         : 1.221560
Stream size                              : 351 MiB (100%)

General
Complete name                            : J:\torrents\The Rolling Stones - 1978 - Some Girls\03. Imagination.dsf
Format                                   : DSF
Format/Info                              : Direct Stream Digital Stream File
Format version                           : Version 1
File size                                : 375 MiB
Duration                                 : 4 min 38 s
Overall bit rate                         : 11.3 Mb/s
Album replay gain                        : -3.32 dB
Album replay gain peak                   : 1.221560
Album                                    : Some Girls
Track name                               : Imagination
Track name/Position                      : 3
Track name/Total                         : 10
Performer                                : The Rolling Stones
Publisher                                : https://www.discogs.com/Rolling-Stones-Some-Girls/release/3030024
Genre                                    : Rock
Recorded date                            : 1978-04-29 07:37
Writing library                          : KORG AudioGate ver.4.5.2 (Windows 7)
Cover                                    : Yes
Cover type                               : Cover (front)
Cover MIME                               : image/jpeg
Comment                                  : AT-OC9/III -> Yamaha GT-750 -> Lehmann Audio Black Cube SE -> Korg MR-2000S (интерконнекты Yamaha и AudioQuest Evergreen).

Audio
Format                                   : DSD
Format/Info                              : Direct Stream Digital
Commercial name                          : DSD128
Format settings                          : Little
Duration                                 : 4 min 38 s
Bit rate                                 : 11.3 Mb/s
Channel(s)                               : 2 channels
Channel layout                           : L R
Sampling rate                            : 5 645 kHz
Compression mode                         : Lossless
Replay gain                              : -3.32 dB
Replay gain peak                         : 1.221560
Stream size                              : 375 MiB (100%)

General
Complete name                            : J:\torrents\The Rolling Stones - 1978 - Some Girls\04. Some Girls.dsf
Format                                   : DSF
Format/Info                              : Direct Stream Digital Stream File
Format version                           : Version 1
File size                                : 373 MiB
Duration                                 : 4 min 36 s
Overall bit rate                         : 11.3 Mb/s
Album replay gain                        : -3.32 dB
Album replay gain peak                   : 1.221560
Album                                    : Some Girls
Track name                               : Some Girls
Track name/Position                      : 4
Track name/Total                         : 10
Performer                                : The Rolling Stones
Publisher                                : https://www.discogs.com/Rolling-Stones-Some-Girls/release/3030024
Genre                                    : Rock
Recorded date                            : 1978-04-29 07:37
Writing library                          : KORG AudioGate ver.4.5.2 (Windows 7)
Cover                                    : Yes
Cover type                               : Cover (front)
Cover MIME                               : image/jpeg
Comment                                  : AT-OC9/III -> Yamaha GT-750 -> Lehmann Audio Black Cube SE -> Korg MR-2000S (интерконнекты Yamaha и AudioQuest Evergreen).

Audio
Format                                   : DSD
Format/Info                              : Direct Stream Digital
Commercial name                          : DSD128
Format settings                          : Little
Duration                                 : 4 min 36 s
Bit rate                                 : 11.3 Mb/s
Channel(s)                               : 2 channels
Channel layout                           : L R
Sampling rate                            : 5 645 kHz
Compression mode                         : Lossless
Replay gain                              : -3.32 dB
Replay gain peak                         : 1.221560
Stream size                              : 372 MiB (100%)

General
Complete name                            : J:\torrents\The Rolling Stones - 1978 - Some Girls\05. Lies.dsf
Format                                   : DSF
Format/Info                              : Direct Stream Digital Stream File
Format version                           : Version 1
File size                                : 259 MiB
Duration                                 : 3 min 12 s
Overall bit rate                         : 11.3 Mb/s
Album replay gain                        : -3.32 dB
Album replay gain peak                   : 1.221560
Album                                    : Some Girls
Track name                               : Lies
Track name/Position                      : 5
Track name/Total                         : 10
Performer                                : The Rolling Stones
Publisher                                : https://www.discogs.com/Rolling-Stones-Some-Girls/release/3030024
Genre                                    : Rock
Recorded date                            : 1978-04-29 07:37
Writing library                          : KORG AudioGate ver.4.5.2 (Windows 7)
Cover                                    : Yes
Cover type                               : Cover (front)
Cover MIME                               : image/jpeg
Comment                                  : AT-OC9/III -> Yamaha GT-750 -> Lehmann Audio Black Cube SE -> Korg MR-2000S (интерконнекты Yamaha и AudioQuest Evergreen).

Audio
Format                                   : DSD
Format/Info                              : Direct Stream Digital
Commercial name                          : DSD128
Format settings                          : Little
Duration                                 : 3 min 12 s
Bit rate                                 : 11.3 Mb/s
Channel(s)                               : 2 channels
Channel layout                           : L R
Sampling rate                            : 5 645 kHz
Compression mode                         : Lossless
Replay gain                              : -3.32 dB
Replay gain peak                         : 1.221560
Stream size                              : 259 MiB (100%)

General
Complete name                            : J:\torrents\The Rolling Stones - 1978 - Some Girls\06. Far Away Eyes.dsf
Format                                   : DSF
Format/Info                              : Direct Stream Digital Stream File
Format version                           : Version 1
File size                                : 357 MiB
Duration                                 : 4 min 25 s
Overall bit rate                         : 11.3 Mb/s
Album replay gain                        : -3.32 dB
Album replay gain peak                   : 1.221560
Album                                    : Some Girls
Track name                               : Far Away Eyes
Track name/Position                      : 6
Track name/Total                         : 10
Performer                                : The Rolling Stones
Publisher                                : https://www.discogs.com/Rolling-Stones-Some-Girls/release/3030024
Genre                                    : Rock
Recorded date                            : 1978-04-29 07:37
Writing library                          : KORG AudioGate ver.4.5.2 (Windows 7)
Cover                                    : Yes
Cover type                               : Cover (front)
Cover MIME                               : image/jpeg
Comment                                  : AT-OC9/III -> Yamaha GT-750 -> Lehmann Audio Black Cube SE -> Korg MR-2000S (интерконнекты Yamaha и AudioQuest Evergreen).

Audio
Format                                   : DSD
Format/Info                              : Direct Stream Digital
Commercial name                          : DSD128
Format settings                          : Little
Duration                                 : 4 min 25 s
Bit rate                                 : 11.3 Mb/s
Channel(s)                               : 2 channels
Channel layout                           : L R
Sampling rate                            : 5 645 kHz
Compression mode                         : Lossless
Replay gain                              : -3.32 dB
Replay gain peak                         : 1.221560
Stream size                              : 357 MiB (100%)

General
Complete name                            : J:\torrents\The Rolling Stones - 1978 - Some Girls\07. Respectable.dsf
Format                                   : DSF
Format/Info                              : Direct Stream Digital Stream File
Format version                           : Version 1
File size                                : 253 MiB
Duration                                 : 3 min 7 s
Overall bit rate                         : 11.3 Mb/s
Album replay gain                        : -3.32 dB
Album replay gain peak                   : 1.221560
Album                                    : Some Girls
Track name                               : Respectable
Track name/Position                      : 7
Track name/Total                         : 10
Performer                                : The Rolling Stones
Publisher                                : https://www.discogs.com/Rolling-Stones-Some-Girls/release/3030024
Genre                                    : Rock
Recorded date                            : 1978-04-29 07:37
Writing library                          : KORG AudioGate ver.4.5.2 (Windows 7)
Cover                                    : Yes
Cover type                               : Cover (front)
Cover MIME                               : image/jpeg
Comment                                  : AT-OC9/III -> Yamaha GT-750 -> Lehmann Audio Black Cube SE -> Korg MR-2000S (интерконнекты Yamaha и AudioQuest Evergreen).

Audio
Format                                   : DSD
Format/Info                              : Direct Stream Digital
Commercial name                          : DSD128
Format settings                          : Little
Duration                                 : 3 min 7 s
Bit rate                                 : 11.3 Mb/s
Channel(s)                               : 2 channels
Channel layout                           : L R
Sampling rate                            : 5 645 kHz
Compression mode                         : Lossless
Replay gain                              : -3.32 dB
Replay gain peak                         : 1.221560
Stream size                              : 253 MiB (100%)

General
Complete name                            : J:\torrents\The Rolling Stones - 1978 - Some Girls\08. Before They Make Me Run.dsf
Format                                   : DSF
Format/Info                              : Direct Stream Digital Stream File
Format version                           : Version 1
File size                                : 277 MiB
Duration                                 : 3 min 25 s
Overall bit rate                         : 11.3 Mb/s
Album replay gain                        : -3.32 dB
Album replay gain peak                   : 1.221560
Album                                    : Some Girls
Track name                               : Before They Make Me Run
Track name/Position                      : 8
Track name/Total                         : 10
Performer                                : The Rolling Stones
Publisher                                : https://www.discogs.com/Rolling-Stones-Some-Girls/release/3030024
Genre                                    : Rock
Recorded date                            : 1978-04-29 07:37
Writing library                          : KORG AudioGate ver.4.5.2 (Windows 7)
Cover                                    : Yes
Cover type                               : Cover (front)
Cover MIME                               : image/jpeg
Comment                                  : AT-OC9/III -> Yamaha GT-750 -> Lehmann Audio Black Cube SE -> Korg MR-2000S (интерконнекты Yamaha и AudioQuest Evergreen).

Audio
Format                                   : DSD
Format/Info                              : Direct Stream Digital
Commercial name                          : DSD128
Format settings                          : Little
Duration                                 : 3 min 25 s
Bit rate                                 : 11.3 Mb/s
Channel(s)                               : 2 channels
Channel layout                           : L R
Sampling rate                            : 5 645 kHz
Compression mode                         : Lossless
Replay gain                              : -3.32 dB
Replay gain peak                         : 1.221560
Stream size                              : 276 MiB (100%)

General
Complete name                            : J:\torrents\The Rolling Stones - 1978 - Some Girls\09. Beast of Burden.dsf
Format                                   : DSF
Format/Info                              : Direct Stream Digital Stream File
Format version                           : Version 1
File size                                : 357 MiB
Duration                                 : 4 min 25 s
Overall bit rate                         : 11.3 Mb/s
Album replay gain                        : -3.32 dB
Album replay gain peak                   : 1.221560
Album                                    : Some Girls
Track name                               : Beast of Burden
Track name/Position                      : 9
Track name/Total                         : 10
Performer                                : The Rolling Stones
Publisher                                : https://www.discogs.com/Rolling-Stones-Some-Girls/release/3030024
Genre                                    : Rock
Recorded date                            : 1978-04-29 07:37
Writing library                          : KORG AudioGate ver.4.5.2 (Windows 7)
Cover                                    : Yes
Cover type                               : Cover (front)
Cover MIME                               : image/jpeg
Comment                                  : AT-OC9/III -> Yamaha GT-750 -> Lehmann Audio Black Cube SE -> Korg MR-2000S (интерконнекты Yamaha и AudioQuest Evergreen).

Audio
Format                                   : DSD
Format/Info                              : Direct Stream Digital
Commercial name                          : DSD128
Format settings                          : Little
Duration                                 : 4 min 25 s
Bit rate                                 : 11.3 Mb/s
Channel(s)                               : 2 channels
Channel layout                           : L R
Sampling rate                            : 5 645 kHz
Compression mode                         : Lossless
Replay gain                              : -3.32 dB
Replay gain peak                         : 1.221560
Stream size                              : 357 MiB (100%)

General
Complete name                            : J:\torrents\The Rolling Stones - 1978 - Some Girls\10. Shattered.dsf
Format                                   : DSF
Format/Info                              : Direct Stream Digital Stream File
Format version                           : Version 1
File size                                : 305 MiB
Duration                                 : 3 min 46 s
Overall bit rate                         : 11.3 Mb/s
Album replay gain                        : -3.32 dB
Album replay gain peak                   : 1.221560
Album                                    : Some Girls
Track name                               : Shattered
Track name/Position                      : 10
Track name/Total                         : 10
Performer                                : The Rolling Stones
Publisher                                : https://www.discogs.com/Rolling-Stones-Some-Girls/release/3030024
Genre                                    : Rock
Recorded date                            : 1978-04-29 07:37
Writing library                          : KORG AudioGate ver.4.5.2 (Windows 7)
Cover                                    : Yes
Cover type                               : Cover (front)
Cover MIME                               : image/jpeg
Comment                                  : AT-OC9/III -> Yamaha GT-750 -> Lehmann Audio Black Cube SE -> Korg MR-2000S (интерконнекты Yamaha и AudioQuest Evergreen).

Audio
Format                                   : DSD
Format/Info                              : Direct Stream Digital
Commercial name                          : DSD128
Format settings                          : Little
Duration                                 : 3 min 46 s
Bit rate                                 : 11.3 Mb/s
Channel(s)                               : 2 channels
Channel layout                           : L R
Sampling rate                            : 5 645 kHz
Compression mode                         : Lossless
Replay gain                              : -3.32 dB
Replay gain peak                         : 1.221560
Stream size                              : 305 MiB (100%)

General
Complete name                            : J:\torrents\The Rolling Stones - 1978 - Some Girls\cover.jpg
Format                                   : JPEG
File size                                : 174 KiB

Image
Format                                   : JPEG
Width                                    : 500 pixels
Height                                   : 494 pixels
Color space                              : YUV
Chroma subsampling                       : 4:2:0
Bit depth                                : 8 bits
Compression mode                         : Lossy
Stream size                              : 174 KiB (100%)

Код: выделить все
foobar2000 1.4.8 / Dynamic Range Meter 1.1.1
log date: 2020-04-29 15:21:50

--------------------------------------------------------------------------------
Analyzed: The Rolling Stones / Some Girls
--------------------------------------------------------------------------------

DR         Peak         RMS     Duration Track
--------------------------------------------------------------------------------
DR16      -1.18 dB   -19.07 dB      4:49 01-Miss You
DR13      -1.76 dB   -16.86 dB      4:21 02-When the Whip Comes Down
DR13      -2.24 dB   -16.72 dB      4:39 03-Imagination
DR13      -2.03 dB   -17.51 dB      4:37 04-Some Girls
DR12      -2.81 dB   -17.17 dB      3:12 05-Lies
DR14      -2.52 dB   -18.91 dB      4:25 06-Far Away Eyes
DR14      -0.21 dB   -15.42 dB      3:08 07-Respectable
DR13      -1.42 dB   -15.93 dB      3:25 08-Before They Make Me Run
DR14      -0.59 dB   -17.27 dB      4:25 09-Beast of Burden
DR13      -0.95 dB   -15.40 dB      3:46 10-Shattered
--------------------------------------------------------------------------------

Number of tracks:  10
Official DR value: DR13

Samplerate:        5644800 Hz / PCM Samplerate: 176400 Hz
Channels:          2
Bits per sample:   1
Bitrate:           11290 kbps
Codec:             DSD128
================================================================================
Время раздачи: 24/7 до пяти скачавших.
[NNMClub.to]_The Rolling Stones - 1978 - Some Girls.torrent
 Торрент:   Зарегистрирован
 
Зарегистрируйтесь и скачайте торрент!
17 KB

Примагнититься
 Зарегистрирован:   03 Май 2020 18:19:32
 Размер:   3,22 GB  (
 Рейтинг:    (Голосов: 9)
 Поблагодарили:   44
 Проверка:   Оформление проверено модератором 03 Май 2020 21:23:15
Как cкачать  ·  Как раздать  ·  Правильно оформить  ·  Поднять ратио!  
gvm55
Зам. Куратора Музыки
Спонсор и Реставратор Клуба, Uploader 100+
Стаж: 11 лет 1 мес.
Сообщений: 4588
Ratio: 159,358
Раздал: 164,7 TB
Поблагодарили: 66466
100%
Откуда: SPb
nnm-club.gif
Обратите внимание, что кодирование выполнено в формате DSD (англ. Direct Stream Digital) — однобитный аудиоформат. Ссылка в Вики

_________________
Исправил релиз - напиши мне в со ссылкой на него.
GFR2014
Стаж: 5 лет 9 мес.
Сообщений: 95
Ratio: 4,033
35.22%
Stones Forever
Показать сообщения:   
Начать новую тему   Ответить на тему    Торрент-трекер NNM-Club -> HD Audio и Многоканальная Музыка -> Vinyl-Rip и Hand-Made Часовой пояс: GMT + 3
Страница 1 из 1