Классический форум-трекер
canvas not supported
Нас вместе: 4 113 669

Cell - Live in Corfu (2020) [FLAC|Lossless|WEB-DL|tracks] <Ambient, Downtempo>


 
 
RSS
Начать новую тему   Ответить на тему    Торрент-трекер NNM-Club -> Electronic -> Easy listening (Lossless)
Автор Сообщение
Magnit Rus ®

Online
Стаж: 9 лет
Сообщений: 446
Ratio: 196,887
Раздал: 18,02 TB
Поблагодарили: 15727
100%
Откуда: от туда
russia.gif
Cell - Live in Corfu (2020)
Исполнитель: CELL
Жанр: Ambient, Downtempo
Издание: ultimae records-inre098
Источник: ultimae records
Продолжительность: 01:10:01

Кодек: FLAC
Битрейт: Lossless|WEB-DL
Тип рипа: tracks

Треклист:
1. Elevation (live edit) 09:02
2. Over the Roof (live edit) 06:06
3. Pulse (live edit) 08:03
4. Traffic (live edit) 08:59
5. Security (live edit) 10:44
6. Spinning Whale (live edit) 09:49
7. Take Off (live edit) 05:44
8. Intimate Removals (live edit) 11:29
Код: выделить все
foobar2000 1.4.5 / Замер динамического диапазона (DR) 1.1.1
Дата отчёта:    2020-05-04 19:11:28

--------------------------------------------------------------------------------
Анализ:   Cell / Live in Corfu
--------------------------------------------------------------------------------

DR         Пики         RMS           Продолжительность трека
--------------------------------------------------------------------------------
DR8       -0.39 дБ   -10.48 дБ      9:03 01-Elevation (Live Edit)
DR7       -0.39 дБ    -9.44 дБ      6:07 02-Over the Roof (Live Edit)
DR8       -0.39 дБ    -9.68 дБ      8:03 03-Pulse (Live Edit)
DR8       -0.39 дБ   -11.35 дБ      9:00 04-Traffic (Live Edit)
DR8       -0.39 дБ   -10.20 дБ     10:44 05-Security (Live Edit)
DR8       -0.37 дБ   -10.85 дБ      9:49 06-Spinning Whale (Live Edit)
DR8       -0.41 дБ    -9.77 дБ      5:45 07-Take Off (Live Edit)
DR7       -0.45 дБ    -9.96 дБ     11:29 08-Intimate Removals (Live Edit)
--------------------------------------------------------------------------------

Количество треков:  8
Реальные значения DR:  DR8

Частота:      44100 Гц
Каналов:      2
Разрядность:     16
Битрейт:      804 кбит/с
Кодек:      FLAC
================================================================================
Код: выделить все
Общее
Полное имя                               : D:\Музыка\Cell - Live In Corfu (2020) [WEB-FLAC]\01. Cell - Elevation (Live Edit).flac
Формат                                   : FLAC
Формат/Информация                        : Free Lossless Audio Codec
Размер файла                             : 54,6 Мбайт
Продолжительность                        : 9 м. 2 с.
Режим общего битрейта                    : Переменный
Общий поток                              : 844 Кбит/сек
Альбом                                   : Live in Corfu
Альбом/Исполнитель                       : Cell
Трек                                     : Elevation (Live Edit)
Трек/Положение                           : 01
Исполнитель                              : Cell
Продюсер                                 : Ultimae
Дата записи                              : 2020
Обложка                                  : Yes
Тип обложки                              : Cover (front)
MIME-тип обложки                         : image/jpeg

Аудио
Формат                                   : FLAC
Формат/Информация                        : Free Lossless Audio Codec
Продолжительность                        : 9 м. 2 с.
Вид битрейта                             : Переменный
Битрейт                                  : 836 Кбит/сек
Каналы                                   : 2 канала
Channel layout                           : L R
Частота                                  : 44,1 КГц
Битовая глубина                          : 16 бит
Метод сжатия                             : Без потерь
Размер потока                            : 54,1 Мбайт (99%)
Библиотека кодирования                   : libFLAC 1.3.1 (UTC 2014-11-25)

Общее
Полное имя                               : D:\Музыка\Cell - Live In Corfu (2020) [WEB-FLAC]\02. Cell - Over the Roof (Live Edit).flac
Формат                                   : FLAC
Формат/Информация                        : Free Lossless Audio Codec
Размер файла                             : 29,5 Мбайт
Продолжительность                        : 6 м. 6 с.
Режим общего битрейта                    : Переменный
Общий поток                              : 675 Кбит/сек
Альбом                                   : Live in Corfu
Альбом/Исполнитель                       : Cell
Трек                                     : Over the Roof (Live Edit)
Трек/Положение                           : 02
Исполнитель                              : Cell
Продюсер                                 : Ultimae
Дата записи                              : 2020
Обложка                                  : Yes
Тип обложки                              : Cover (front)
MIME-тип обложки                         : image/jpeg

Аудио
Формат                                   : FLAC
Формат/Информация                        : Free Lossless Audio Codec
Продолжительность                        : 6 м. 6 с.
Вид битрейта                             : Переменный
Битрейт                                  : 664 Кбит/сек
Каналы                                   : 2 канала
Channel layout                           : L R
Частота                                  : 44,1 КГц
Битовая глубина                          : 16 бит
Метод сжатия                             : Без потерь
Размер потока                            : 29,1 Мбайт (98%)
Библиотека кодирования                   : libFLAC 1.3.1 (UTC 2014-11-25)

Общее
Полное имя                               : D:\Музыка\Cell - Live In Corfu (2020) [WEB-FLAC]\03. Cell - Pulse (Live Edit).flac
Формат                                   : FLAC
Формат/Информация                        : Free Lossless Audio Codec
Размер файла                             : 42,8 Мбайт
Продолжительность                        : 8 м. 3 с.
Режим общего битрейта                    : Переменный
Общий поток                              : 742 Кбит/сек
Альбом                                   : Live in Corfu
Альбом/Исполнитель                       : Cell
Трек                                     : Pulse (Live Edit)
Трек/Положение                           : 03
Исполнитель                              : Cell
Продюсер                                 : Ultimae
Дата записи                              : 2020
Обложка                                  : Yes
Тип обложки                              : Cover (front)
MIME-тип обложки                         : image/jpeg

Аудио
Формат                                   : FLAC
Формат/Информация                        : Free Lossless Audio Codec
Продолжительность                        : 8 м. 3 с.
Вид битрейта                             : Переменный
Битрейт                                  : 734 Кбит/сек
Каналы                                   : 2 канала
Channel layout                           : L R
Частота                                  : 44,1 КГц
Битовая глубина                          : 16 бит
Метод сжатия                             : Без потерь
Размер потока                            : 42,3 Мбайт (99%)
Библиотека кодирования                   : libFLAC 1.3.1 (UTC 2014-11-25)

Общее
Полное имя                               : D:\Музыка\Cell - Live In Corfu (2020) [WEB-FLAC]\04. Cell - Traffic (Live Edit).flac
Формат                                   : FLAC
Формат/Информация                        : Free Lossless Audio Codec
Размер файла                             : 51,8 Мбайт
Продолжительность                        : 8 м. 59 с.
Режим общего битрейта                    : Переменный
Общий поток                              : 805 Кбит/сек
Альбом                                   : Live in Corfu
Альбом/Исполнитель                       : Cell
Трек                                     : Traffic (Live Edit)
Трек/Положение                           : 04
Исполнитель                              : Cell
Продюсер                                 : Ultimae
Дата записи                              : 2020
Обложка                                  : Yes
Тип обложки                              : Cover (front)
MIME-тип обложки                         : image/jpeg

Аудио
Формат                                   : FLAC
Формат/Информация                        : Free Lossless Audio Codec
Продолжительность                        : 8 м. 59 с.
Вид битрейта                             : Переменный
Битрейт                                  : 798 Кбит/сек
Каналы                                   : 2 канала
Channel layout                           : L R
Частота                                  : 44,1 КГц
Битовая глубина                          : 16 бит
Метод сжатия                             : Без потерь
Размер потока                            : 51,4 Мбайт (99%)
Библиотека кодирования                   : libFLAC 1.3.1 (UTC 2014-11-25)

Общее
Полное имя                               : D:\Музыка\Cell - Live In Corfu (2020) [WEB-FLAC]\05. Cell - Security (Live Edit).flac
Формат                                   : FLAC
Формат/Информация                        : Free Lossless Audio Codec
Размер файла                             : 50,2 Мбайт
Продолжительность                        : 10 м. 44 с.
Режим общего битрейта                    : Переменный
Общий поток                              : 654 Кбит/сек
Альбом                                   : Live in Corfu
Альбом/Исполнитель                       : Cell
Трек                                     : Security (Live Edit)
Трек/Положение                           : 05
Исполнитель                              : Cell
Продюсер                                 : Ultimae
Дата записи                              : 2020
Обложка                                  : Yes
Тип обложки                              : Cover (front)
MIME-тип обложки                         : image/jpeg

Аудио
Формат                                   : FLAC
Формат/Информация                        : Free Lossless Audio Codec
Продолжительность                        : 10 м. 44 с.
Вид битрейта                             : Переменный
Битрейт                                  : 648 Кбит/сек
Каналы                                   : 2 канала
Channel layout                           : L R
Частота                                  : 44,1 КГц
Битовая глубина                          : 16 бит
Метод сжатия                             : Без потерь
Размер потока                            : 49,8 Мбайт (99%)
Библиотека кодирования                   : libFLAC 1.3.1 (UTC 2014-11-25)

Общее
Полное имя                               : D:\Музыка\Cell - Live In Corfu (2020) [WEB-FLAC]\06. Cell - Spinning Whale (Live Edit).flac
Формат                                   : FLAC
Формат/Информация                        : Free Lossless Audio Codec
Размер файла                             : 51,9 Мбайт
Продолжительность                        : 9 м. 49 с.
Режим общего битрейта                    : Переменный
Общий поток                              : 738 Кбит/сек
Альбом                                   : Live in Corfu
Альбом/Исполнитель                       : Cell
Трек                                     : Spinning Whale (Live Edit)
Трек/Положение                           : 06
Исполнитель                              : Cell
Продюсер                                 : Ultimae
Дата записи                              : 2020
Обложка                                  : Yes
Тип обложки                              : Cover (front)
MIME-тип обложки                         : image/jpeg

Аудио
Формат                                   : FLAC
Формат/Информация                        : Free Lossless Audio Codec
Продолжительность                        : 9 м. 49 с.
Вид битрейта                             : Переменный
Битрейт                                  : 732 Кбит/сек
Каналы                                   : 2 канала
Channel layout                           : L R
Частота                                  : 44,1 КГц
Битовая глубина                          : 16 бит
Метод сжатия                             : Без потерь
Размер потока                            : 51,4 Мбайт (99%)
Библиотека кодирования                   : libFLAC 1.3.1 (UTC 2014-11-25)

Общее
Полное имя                               : D:\Музыка\Cell - Live In Corfu (2020) [WEB-FLAC]\07. Cell - Take Off (Live Edit).flac
Формат                                   : FLAC
Формат/Информация                        : Free Lossless Audio Codec
Размер файла                             : 30,9 Мбайт
Продолжительность                        : 5 м. 44 с.
Режим общего битрейта                    : Переменный
Общий поток                              : 751 Кбит/сек
Альбом                                   : Live in Corfu
Альбом/Исполнитель                       : Cell
Трек                                     : Take Off (Live Edit)
Трек/Положение                           : 07
Исполнитель                              : Cell
Продюсер                                 : Ultimae
Дата записи                              : 2020
Обложка                                  : Yes
Тип обложки                              : Cover (front)
MIME-тип обложки                         : image/jpeg

Аудио
Формат                                   : FLAC
Формат/Информация                        : Free Lossless Audio Codec
Продолжительность                        : 5 м. 44 с.
Вид битрейта                             : Переменный
Битрейт                                  : 740 Кбит/сек
Каналы                                   : 2 канала
Channel layout                           : L R
Частота                                  : 44,1 КГц
Битовая глубина                          : 16 бит
Метод сжатия                             : Без потерь
Размер потока                            : 30,4 Мбайт (98%)
Библиотека кодирования                   : libFLAC 1.3.1 (UTC 2014-11-25)

Общее
Полное имя                               : D:\Музыка\Cell - Live In Corfu (2020) [WEB-FLAC]\08. Cell - Intimate Removals (Live Edit).flac
Формат                                   : FLAC
Формат/Информация                        : Free Lossless Audio Codec
Размер файла                             : 66,6 Мбайт
Продолжительность                        : 11 м. 29 с.
Режим общего битрейта                    : Переменный
Общий поток                              : 810 Кбит/сек
Альбом                                   : Live in Corfu
Альбом/Исполнитель                       : Cell
Трек                                     : Intimate Removals (Live Edit)
Трек/Положение                           : 08
Исполнитель                              : Cell
Продюсер                                 : Ultimae
Дата записи                              : 2020
Обложка                                  : Yes
Тип обложки                              : Cover (front)
MIME-тип обложки                         : image/jpeg

Аудио
Формат                                   : FLAC
Формат/Информация                        : Free Lossless Audio Codec
Продолжительность                        : 11 м. 29 с.
Вид битрейта                             : Переменный
Битрейт                                  : 804 Кбит/сек
Каналы                                   : 2 канала
Channel layout                           : L R
Частота                                  : 44,1 КГц
Битовая глубина                          : 16 бит
Метод сжатия                             : Без потерь
Размер потока                            : 66,1 Мбайт (99%)
Библиотека кодирования                   : libFLAC 1.3.1 (UTC 2014-11-25)

Общее
Полное имя                               : D:\Музыка\Cell - Live In Corfu (2020) [WEB-FLAC]\CELL - Live in Corfu (24bit) - inre098-CELL-LIVE-IN-CORFU-Booklet-Full-HD-24bit.pdf
Формат                                   : PDF
Версия формата                           : 1.3
Размер файла                             : 86,0 Мбайт

Текст
Формат                                   : PDF

Общее
Полное имя                               : D:\Музыка\Cell - Live In Corfu (2020) [WEB-FLAC]\Folder.auCDtect.txt
Размер файла                             : 3,88 Кбайт

Общее
Полное имя                               : D:\Музыка\Cell - Live In Corfu (2020) [WEB-FLAC]\cover.png
Формат                                   : PNG
Формат/Информация                        : Portable Network Graphic
Размер файла                             : 5,26 Мбайт

Изображения
Формат                                   : PNG
Формат/Информация                        : Portable Network Graphic
Format_Compression                       : LZ77
Ширина                                   : 1 500 пикселей
Высота                                   : 1 500 пикселей
Битовая глубина                          : 48 бит
Метод сжатия                             : Без потерь
Размер потока                            : 5,26 Мбайт (100%)
Время раздачи: 24/7 (до появления первых 3-5 скачавших)
[NNMClub.to]_Cell - Live In Corfu (2020) [WEB-FLAC].torrent
 Торрент:   Зарегистрирован
 
Зарегистрируйтесь и скачайте торрент!
37,6 KB

Примагнититься
 Зарегистрирован:   04 Май 2020 12:30:59
 Размер:   469 MB  (
 Рейтинг:    (Голосов: 4)
 Поблагодарили:   36
 Проверка:   Оформление проверено модератором 05 Май 2020 09:15:38
Как cкачать  ·  Как раздать  ·  Правильно оформить  ·  Поднять ратио!  
Показать сообщения:   
Начать новую тему   Ответить на тему    Торрент-трекер NNM-Club -> Electronic -> Easy listening (Lossless) Часовой пояс: GMT + 3
Страница 1 из 1