Классический форум-трекер
canvas not supported
Нас вместе: 4 114 601

Перекресток Миллера / Miller's Crossing (1990) BDRip [720p] ATV


 
 
RSS
Начать новую тему   Ответить на тему    Торрент-трекер NNM-Club -> Аудио и Видео -> Зарубежное видео HD для устройств Apple
Автор Сообщение
Весельчак У ®
Модератор Apple
Uploader 100+
Стаж: 6 лет 5 мес.
Сообщений: 6098
Ratio: 160,456
Поблагодарили: 197241
93.13%
Откуда: От Москвы недалеко...
ussr.gif
Перекресток Миллера / Miller's Crossing (1990) BDRip [720p] ATV«Nothing is what it seems at Miller's Crossing»
Производство: USA / Circle Films, Twentieth Century Fox Film Corporation
Жанр: Триллер, драма, криминал

Режиссер: Джоэл Коэн, Итан Коэн
Продюсер: Итан Коэн, Бен Баренхольц, Грэхэм Плэйс
Актеры: Гэбриел Бирн, Джон Туртурро, Альберт Финни, Марша Гей Харден, Джон Полито, Дж.Э. Фримен, Майк Старр, Аль Манчини, Ричард Вуд, Томас Тонер

Описание:
Америка тридцатых годов. Время сухого закона. Преступные кланы в любой момент готовы развязать кровавую войну за контроль над поставками нелегального алкоголя. Том Рейган — умный и авторитетный преступник, бывший советник одного из мафиозных боссов. Он своего рода антигерой, абсолютно аморальный, эгоистичный и подлый человек.
Но тем не менее своими незаурядными способностями оставаться живым после самых крутых разборок вызывает искренние симпатии. Он умело балансирует между двумя готовыми в любой момент сорваться бандами, пытаясь удержать их от начала войны. Но долго так продолжаться не может, и у Тома возникают такие проблемы, от решения которых будут зависеть судьбы слишком многих людей…


Возраст: 16+ (зрителям, достигшим 16 лет)
Рейтинг MPAA: R (лицам до 17 лет обязательно присутствие взрослого)

Релиз от: NNMClub

Продолжительность: 01:54:51
Качество видео: BDRip 720p
Перевод: Дублированный, профессиональный многоголосый, авторский одноголосый
Субтитры: Русские, английские (вшитые, отключаемые)

Видео: H.264, 1280x694 (1,85:1), ~7000 kbps, 23.976 fps
Аудио#1: AAC, 2.0 ch, 192 Kbps - Русский DUB, Blu-Ray CEE
Аудио#2: AAC, 2.0 ch, 192 Kbps - Русский MVO
Аудио#3: AAC, 2.0 ch, 192 Kbps - Русский AVO, А. Гаврилов
Аудио#4: AAC, 2.0 ch, 192 Kbps - English Original
Аудио#5: AC3, 6.0 ch, 640 Kbps - Русский DUB, Blu-Ray CEE
Аудио#6: AC3, 6.0 ch, 448 Kbps - Русский MVO
Аудио#7: AC3, 6.0 ch, 640 Kbps - Русский AVO, А. Гаврилов
Аудио#8: AC3, 6.0 ch, 640 Kbps - English Original

Общее
Полное имя : /Volumes/HDD/Dropbox/Millers.Crossing.1990.BDrip.720p.NNMClub.m4v
Формат : MPEG-4
Идентификатор кодека : M4V (M4V /M4A /mp42/isom)
Размер файла : 8,15 Гбайт
Продолжительность : 1 ч. 54 м.
Режим общего битрейта : Переменный
Общий поток : 10,2 Мбит/сек
Название фильма : Перекресток Миллера
Исполнитель : Joel Coen
Режиссёр : Joel Coen
Исполнитель : Albert Finney / Gabriel Byrne / John Turturro / Jon Polito / Marcia Gay Harden / J.E. Freeman
Студия-производитель : 20th Century Fox
Жанр : Боевики и приключения
Тип содержимого : Short Film
Дата записи : UTC 2000-03-01 08:00:00
Дата кодирования : UTC 2020-05-12 17:40:47
Дата пометки : UTC 2020-05-12 17:54:15
Авторское право : © 1990 Twentieth Century Fox Film Corporation.
Обложка : Yes
LongDescription : Кинорежиссеры Джоэл и Итан Коэн создали на экране сложное и наглядное изображение гангстерской жизни времен сухого закона. Персонажи фильма – лихие мошенники, отъявленные головорезы и безобидные бродяги. Шайку гангстеров где-то на востоке страны возглавляют симпатичный ирландец Лео (Альберт Финни) и его верный помощник и правая рука – Том (Гэбриэл Бирн). Но к их территории проявляют интерес итальянский мафиози и его жестокий сообщник (Джон Полито и Дж. Фримен). В это самое время Лео и Том влюбляются в одну и ту же женщину. Том оказывается в тисках борьбы за бандитскую власть и вынужден участвовать в смертельно опасной игре, пытаясь решить ее исход в свою пользу.
HDVideo : Yes
AppleStoreCountry : Russia
AppleStoreCatalogID : 547081894
ContentRating : ru-movie|18+|400|

Видео #1
Идентификатор : 1
Формат : AVC
Формат/Информация : Advanced Video Codec
Профиль формата : High@L4.1
Настройки формата : CABAC / 4 Ref Frames
Параметр CABAC формата : Да
Параметр ReFrames формата : 4 кадра
Идентификатор кодека : avc1
Идентификатор кодека/Информация : Advanced Video Coding
Продолжительность : 1 ч. 54 м.
Битрейт : 7 000 Кбит/сек
Ширина : 1 280 пикселей
Высота : 694 пикселя
Соотношение сторон : 1,85:1
Режим частоты кадров : Переменный
Частота кадров : 23,976 (24000/1001) кадра/сек
Минимальная частота кадров : 23,810 кадра/сек
Максимальная частота кадров : 24,390 кадра/сек
Цветовое пространство : YUV
Субдискретизация насыщенности : 4:2:0
Битовая глубина : 8 бит
Тип развёртки : Прогрессивная
Бит/(Пиксели*Кадры) : 0.329
Размер потока : 5,62 Гбайт (69%)
Библиотека кодирования : x264 core 115 r1995 c1e60b9
Настройки программы : cabac=1 / ref=3 / deblock=1:-3:-3 / analyse=0x3:0x133 / me=umh / subme=10 / psy=1 / psy_rd=1.00:0.00 / mixed_ref=1 / me_range=32 / chroma_me=1 / trellis=2 / 8x8dct=1 / cqm=0 / deadzone=21,11 / fast_pskip=0 / chroma_qp_offset=-2 / threads=18 / sliced_threads=0 / nr=0 / decimate=0 / interlaced=0 / bluray_compat=0 / constrained_intra=0 / bframes=7 / b_pyramid=2 / b_adapt=2 / b_bias=0 / direct=3 / weightb=1 / open_gop=0 / weightp=2 / keyint=250 / keyint_min=23 / scenecut=40 / intra_refresh=0 / rc_lookahead=40 / rc=2pass / mbtree=0 / bitrate=7000 / ratetol=1.0 / qcomp=0.65 / qpmin=0 / qpmax=40 / qpstep=4 / cplxblur=20.0 / qblur=0.5 / vbv_maxrate=50000 / vbv_bufsize=50000 / nal_hrd=none / ip_ratio=1.25 / pb_ratio=1.25 / aq=1:0.65
Язык : English
Дата кодирования : UTC 2020-05-12 17:40:47
Дата пометки : UTC 2020-05-12 17:53:51
Menus : 12,13
Codec configuration box : avcC

Видео #2
Идентификатор : 13
Формат : JPEG
Идентификатор кодека : jpeg
Продолжительность : 1 ч. 54 м.
Вид битрейта : Переменный
Битрейт : 1 151 бит/сек
Ширина : 640 пикселей
Высота : 347 пикселей
Соотношение сторон : 1,85:1
Режим частоты кадров : Переменный
Частота кадров : 0,004 кадр/сек
Минимальная частота кадров : 0,002 кадр/сек
Максимальная частота кадров : 0,010 кадр/сек
Цветовое пространство : YUV
Субдискретизация насыщенности : 4:2:0
Битовая глубина : 8 бит
Метод сжатия : С потерями
Бит/(Пиксели*Кадры) : 1.296
Размер потока : 984 Кбайт (0%)
Язык : English
Default : Нет
Дата кодирования : UTC 2020-05-12 17:54:13
Дата пометки : UTC 2020-05-12 17:54:14
Menu For : 1
ColorSpace_ICC : RGB

Аудио #1
Идентификатор : 2
Формат : AAC LC
Формат/Информация : Advanced Audio Codec Low Complexity
Идентификатор кодека : mp4a-40-2
Продолжительность : 1 ч. 54 м.
Вид битрейта : Переменный
Битрейт : 192 Кбит/сек
Максимальный битрейт : 350 Кбит/сек
Каналы : 2 канала
Channel layout : L R
Частота : 48,0 КГц
Частота кадров : 46,875 кадров/сек (1024 SPF)
Метод сжатия : С потерями
Размер потока : 160 Мбайт (2%)
Язык : Russian
Default : Да
Alternate group : 1
Дата кодирования : UTC 2020-05-12 17:40:47
Дата пометки : UTC 2020-05-12 17:53:51
Fallback From : 6
tagc : public.main-program-content

Аудио #2
Идентификатор : 3
Формат : AAC LC
Формат/Информация : Advanced Audio Codec Low Complexity
Идентификатор кодека : mp4a-40-2
Продолжительность : 1 ч. 54 м.
Вид битрейта : Переменный
Битрейт : 192 Кбит/сек
Максимальный битрейт : 337 Кбит/сек
Каналы : 2 канала
Channel layout : L R
Частота : 48,0 КГц
Частота кадров : 46,875 кадров/сек (1024 SPF)
Метод сжатия : С потерями
Размер потока : 159 Мбайт (2%)
Язык : Russian
Default : Нет
Alternate group : 1
Дата кодирования : UTC 2020-05-12 17:40:47
Дата пометки : UTC 2020-05-12 17:53:51
Fallback From : 7
tagc : public.auxiliary-content

Аудио #3
Идентификатор : 4
Формат : AAC LC
Формат/Информация : Advanced Audio Codec Low Complexity
Идентификатор кодека : mp4a-40-2
Продолжительность : 1 ч. 54 м.
Вид битрейта : Переменный
Битрейт : 192 Кбит/сек
Максимальный битрейт : 353 Кбит/сек
Каналы : 2 канала
Channel layout : L R
Частота : 48,0 КГц
Частота кадров : 46,875 кадров/сек (1024 SPF)
Метод сжатия : С потерями
Размер потока : 160 Мбайт (2%)
Язык : Russian
Default : Нет
Alternate group : 1
Дата кодирования : UTC 2020-05-12 17:40:47
Дата пометки : UTC 2020-05-12 17:53:51
Fallback From : 8
tagc : public.auxiliary-content

Аудио #4
Идентификатор : 5
Формат : AAC LC
Формат/Информация : Advanced Audio Codec Low Complexity
Идентификатор кодека : mp4a-40-2
Продолжительность : 1 ч. 54 м.
Вид битрейта : Переменный
Битрейт : 192 Кбит/сек
Максимальный битрейт : 352 Кбит/сек
Каналы : 2 канала
Channel layout : L R
Частота : 48,0 КГц
Частота кадров : 46,875 кадров/сек (1024 SPF)
Метод сжатия : С потерями
Размер потока : 161 Мбайт (2%)
Язык : English
Default : Нет
Alternate group : 1
Дата кодирования : UTC 2020-05-12 17:40:47
Дата пометки : UTC 2020-05-12 17:53:51
Fallback From : 9
tagc : public.main-program-content

Аудио #5
Идентификатор : 6
Формат : AC-3
Формат/Информация : Audio Coding 3
Коммерческое название : Dolby Digital
Идентификатор кодека : ac-3
Продолжительность : 1 ч. 54 м.
Вид битрейта : Постоянный
Битрейт : 640 Кбит/сек
Каналы : 6 каналов
Channel layout : L R C LFE Ls Rs
Частота : 48,0 КГц
Частота кадров : 31,250 кадров/сек (1536 SPF)
Метод сжатия : С потерями
Размер потока : 526 Мбайт (6%)
Язык : Russian
Service kind : Complete Main
Default : Inherited From: 2
Alternate group : 1
Дата кодирования : UTC 2020-05-12 17:40:47
Дата пометки : UTC 2020-05-12 17:53:51
Fallback To : 2
tagc : public.main-program-content

Аудио #6
Идентификатор : 7
Формат : AC-3
Формат/Информация : Audio Coding 3
Коммерческое название : Dolby Digital
Идентификатор кодека : ac-3
Продолжительность : 1 ч. 54 м.
Вид битрейта : Постоянный
Битрейт : 448 Кбит/сек
Каналы : 6 каналов
Channel layout : L R C LFE Ls Rs
Частота : 48,0 КГц
Частота кадров : 31,250 кадров/сек (1536 SPF)
Метод сжатия : С потерями
Размер потока : 368 Мбайт (4%)
Язык : Russian
Service kind : Complete Main
Default : Нет
Alternate group : 1
Дата кодирования : UTC 2020-05-12 17:40:47
Дата пометки : UTC 2020-05-12 17:53:51
Fallback To : 3
tagc : public.auxiliary-content

Аудио #7
Идентификатор : 8
Формат : AC-3
Формат/Информация : Audio Coding 3
Коммерческое название : Dolby Digital
Идентификатор кодека : ac-3
Продолжительность : 1 ч. 54 м.
Вид битрейта : Постоянный
Битрейт : 640 Кбит/сек
Каналы : 6 каналов
Channel layout : L R C LFE Ls Rs
Частота : 48,0 КГц
Частота кадров : 31,250 кадров/сек (1536 SPF)
Метод сжатия : С потерями
Размер потока : 526 Мбайт (6%)
Язык : Russian
Service kind : Complete Main
Default : Нет
Alternate group : 1
Дата кодирования : UTC 2020-05-12 17:40:47
Дата пометки : UTC 2020-05-12 17:53:51
Fallback To : 4
tagc : public.auxiliary-content

Аудио #8
Идентификатор : 9
Формат : AC-3
Формат/Информация : Audio Coding 3
Коммерческое название : Dolby Digital
Идентификатор кодека : ac-3
Продолжительность : 1 ч. 54 м.
Вид битрейта : Постоянный
Битрейт : 640 Кбит/сек
Каналы : 6 каналов
Channel layout : L R C LFE Ls Rs
Частота : 48,0 КГц
Частота кадров : 31,250 кадров/сек (1536 SPF)
Метод сжатия : С потерями
Размер потока : 526 Мбайт (6%)
Язык : English
Service kind : Complete Main
Default : Нет
Alternate group : 1
Дата кодирования : UTC 2020-05-12 17:40:47
Дата пометки : UTC 2020-05-12 17:53:51
Fallback To : 5
tagc : public.main-program-content

Текст #1
Идентификатор : 10
Формат : Timed Text
Режим смешивания : sbtl
Идентификатор кодека : tx3g
Продолжительность : 1 ч. 54 м.
Вид битрейта : Переменный
Битрейт : 93 бит/сек
Размер потока : 78,1 Кбайт (0%)
Язык : Russian
Default : Да
Forced : Нет
Alternate group : 2
Дата кодирования : UTC 2020-05-12 17:40:47
Дата пометки : UTC 2020-05-12 17:53:51
tagc : public.main-program-content

Текст #2
Идентификатор : 11
Формат : Timed Text
Режим смешивания : sbtl
Идентификатор кодека : tx3g
Продолжительность : 1 ч. 54 м.
Вид битрейта : Переменный
Битрейт : 62 бит/сек
Размер потока : 52,6 Кбайт (0%)
Язык : English
Default : Нет
Forced : Нет
Alternate group : 2
Дата кодирования : UTC 2020-05-12 17:40:47
Дата пометки : UTC 2020-05-12 17:53:51
tagc : public.main-program-content

Меню
Идентификатор : 12
Идентификатор кодека : text
Продолжительность : 1 ч. 54 м.
Язык : English
Дата кодирования : UTC 2020-05-12 17:53:52
Дата пометки : UTC 2020-05-12 17:53:52
Вид битрейта : CBR
Menu For : 1
00:00:00.000 : 00:00:00.000
00:06:52.829 : 00:06:52.829
00:08:36.933 : 00:08:36.933
00:10:35.677 : 00:10:35.677
00:16:58.476 : 00:16:58.476
00:21:36.253 : 00:21:36.253
00:24:41.438 : 00:24:41.438
00:27:41.869 : 00:27:41.869
00:35:09.482 : 00:35:09.482
00:38:07.243 : 00:38:07.243
00:42:06.357 : 00:42:06.357
00:47:10.327 : 00:47:10.327
00:48:48.134 : 00:48:48.134
00:53:34.378 : 00:53:34.378
00:56:53.410 : 00:56:53.410
01:03:52.037 : 01:03:52.037
01:07:23.206 : 01:07:23.206
01:10:35.231 : 01:10:35.231
01:16:54.360 : 01:16:54.360
01:21:44.525 : 01:21:44.525
01:23:20.537 : 01:23:20.537
01:24:58.260 : 01:24:58.260
01:30:16.995 : 01:30:16.995
01:33:01.367 : 01:33:01.367
01:36:48.720 : 01:36:48.720
01:39:30.047 : 01:39:30.047
01:46:36.599 : 01:46:36.599
01:50:59.903 : 01:50:59.903
Вид битрейта : Постоянный


Name: Перекресток Миллера
Artist: Joel Coen
Media Kind: Movie
HD Video: 720p
Genre: Боевики и приключения
Release Date: 2000-03-01T08:00:00Z
Long Description: Кинорежиссеры Джоэл и Итан Коэн создали на экране сложное и наглядное изображение гангстерской жизни времен сухого закона. Персонажи фильма – лихие мошенники, отъявленные головорезы и безобидные бродяги. Шайку гангстеров где-то на востоке страны возглавляют симпатичный ирландец Лео (Альберт Финни) и его верный помощник и правая рука – Том (Гэбриэл Бирн). Но к их территории проявляют интерес итальянский мафиози и его жестокий сообщник (Джон Полито и Дж. Фримен). В это самое время Лео и Том влюбляются в одну и ту же женщину. Том оказывается в тисках борьбы за бандитскую власть и вынужден участвовать в смертельно опасной игре, пытаясь решить ее исход в свою пользу.
Rating: ru-movie|18+|400|
Studio: 20th Century Fox
Cast: Albert Finney, Gabriel Byrne, John Turturro, Jon Polito, Marcia Gay Harden, J.E. Freeman
Director: Joel Coen
Copyright: © 1990 Twentieth Century Fox Film Corporation.
content ID: 547081894
iTunes Country: 143469

Скриншоты:


Все одноименные релизы в Клубе
Время раздачи: 24/7 (до появления первых 3-5 скачавших)

Релиз подготовлен для просмотра на Apple TV, iPad, iPhone, iPod Touch.
Для просмотра данного релиза на компьютере с ОС Windows рекомендуется использовать VLC media player
Millers.Crossing.1990.BDrip.720p.NNMClub.m4v.torrent
 Торрент: Платиновая раздача  Зарегистрирован
 
Скачать


Примагнититься
 Зарегистрирован:   12 Май 2020 21:23:46
 Размер:   8,15 GB  (
 Рейтинг:    (Голосов: 8)
 Поблагодарили:   46
 Проверка:   Оформление проверено модератором 12 Май 2020 21:31:33
Как cкачать  ·  Как раздать  ·  Правильно оформить  ·  Поднять ратио!  

_________________
«Всё против нас, только ветер навстречу…».
🍏Apple iMac 21.5 (mid 2011) / Intel Core i5 2.7 GHz / AMD Radeon HD 6770M 512 Mb / 12GB DDR3 / Apple Trackpad, Apple Keyboard / macOS High Sierra 10.13.6 (17G13033)
Показать сообщения:   
Начать новую тему   Ответить на тему    Торрент-трекер NNM-Club -> Аудио и Видео -> Зарубежное видео HD для устройств Apple Часовой пояс: GMT + 3
Страница 1 из 1