Классический форум-трекер
canvas not supported
Нас вместе: 4 113 958

Ловушка разума / The Wave (2019) WEB-DL [720p] ATV


 
 
RSS
Начать новую тему   Ответить на тему    Торрент-трекер NNM-Club -> Аудио и Видео -> Зарубежное видео HD для устройств Apple
Автор Сообщение
Весельчак У ®
Модератор Apple
Uploader 100+
Стаж: 6 лет 5 мес.
Сообщений: 6003
Ratio: 161,886
Поблагодарили: 195119
93.64%
Откуда: От Москвы недалеко...
ussr.gif
Ловушка разума / The Wave (2019) WEB-DL [720p] ATV
Производство: США / EchoWolf Productions
Жанр: Фантастика, триллер

Режиссер: Gille Klabin
Продюсер: Joshua Bunting, Gille Klabin, Карл Лукас
Актеры: Джастин Лонг, Томми Флэнаган, Катя Винтер, Дональд Фэйзон, Шейла Ванд, Сара Минник, Билл Сейдж, Моник Канделария, Ронни Джин Блевинс, Блайт Ховард

Описание:
Страховой адвокат начинает принимать загадочный галлюциногенный препарат, который постепенно разрушает его восприятие реальности и выставляет напоказ его жизнь такой, какой она и является на самом деле.


Рейтинг MPAA: R (лицам до 17 лет обязательно присутствие взрослого)
Дата мировой премьеры: 7 декабря 2019
Дата российской премьеры: 25 июня 2020, «Кинологистика»

Релиз от: NNMClub

Продолжительность: 01:27:12
Качество видео: WEB-DL 720p
Перевод: Дублированный (iTunes)
Субтитры: Отсутствуют

Видео: H.264, 1280x536 (2.40:1), ~4054 kbps, 23.976 fps
Аудио#1: AAC, 2.0 ch, 197 Kbps - Русский DUB, iTunes
Аудио#2: AC3, 6.0 ch, 384 Kbps - Русский DUB, iTunes

Общее
Полное имя : /Volumes/HDD/Movies/NNMClub/The.Wave.2019.WEB-DL.720p.NNMClub.m4v
Формат : MPEG-4
Идентификатор кодека : M4V (M4V /M4A /mp42/isom)
Размер файла : 2,83 Гбайт
Продолжительность : 1 ч. 27 м.
Режим общего битрейта : Переменный
Общий поток : 4 642 Кбит/сек
Название фильма : Ловушка разума
Исполнитель : Джилли Клебин
Режиссёр : Джилли Клебин
Исполнитель : Джастин Лонг / Томми Флэнаган / Donald Faison / Катя Винтер
Сценарист : Карл Лукас
Продюсер : Карл Лукас
Студия-производитель : Filmsmith Productions
Жанр : Боевики и приключения
Тип содержимого : Short Film
Дата записи : UTC 2020-05-14 07:00:00
Дата кодирования : UTC 2020-05-14 04:49:06
Дата пометки : UTC 2020-05-14 04:50:31
Авторское право : © Кинологистика
Обложка : Yes
LongDescription : …Вам случалось видеть настолько реальные сны, что, проснувшись, вы не понимали, где вы? То же самое произошло с этим парнем. / Фрэнк - обычный женатик и рядовой юрист крупной страховой компании, вдруг получает шанс всей жизни: он находит лазейку, как не платить пострадавшему клиенту 4 млн долларов. Предвкушая, как он презентует свою находку руководству, Фрэнк принимает предложение коллеги отправиться на ночную тусовку. В круговороте событий, Фрэнк с новой подругой оказывается перед выбором, как у Нео: принимать ли особое средство или нет. Стремясь показаться перед новой подругой максимально крутым мачо, Фрэнк делает роковой выбор и оказывается в... петле времени. Сможет ли он разгадать этот квест и вернуться к нормальной жизни? Успеет ли он попасть на презентацию, чтобы получить повышение и премию или выберет невероятные приключения с новой девушкой, забыв про истеричную жену?
HDVideo : Yes
AppleStoreCountry : Russia
AppleStoreCatalogID : 1510305874
ContentRating : ru-movie|16+|375|

Видео #1
Идентификатор : 1
Формат : AVC
Формат/Информация : Advanced Video Codec
Профиль формата : Main@L3.1
Настройки формата : 2 Ref Frames
Параметр CABAC формата : Нет
Параметр ReFrames формата : 2 кадра
Идентификатор кодека : avc1
Идентификатор кодека/Информация : Advanced Video Coding
Продолжительность : 1 ч. 27 м.
Битрейт : 4 054 Кбит/сек
Ширина : 1 280 пикселей
Высота : 536 пикселей
Соотношение сторон : 2,40:1
Режим частоты кадров : Переменный
Частота кадров : 23,976 (24000/1001) кадра/сек
Минимальная частота кадров : 23,810 кадра/сек
Максимальная частота кадров : 24,390 кадра/сек
Цветовое пространство : YUV
Субдискретизация насыщенности : 4:2:0
Битовая глубина : 8 бит
Тип развёртки : Прогрессивная
Бит/(Пиксели*Кадры) : 0.246
Размер потока : 2,47 Гбайт (87%)
Язык : English
Дата кодирования : UTC 2020-05-14 04:49:06
Дата пометки : UTC 2020-05-14 04:50:28
Цветовой диапазон : Limited
Основные цвета : BT.709
Характеристики трансфера : BT.709
Коэффициенты матрицы : BT.709
Menus : 4,5
Codec configuration box : avcC

Видео #2
Идентификатор : 5
Формат : JPEG
Идентификатор кодека : jpeg
Продолжительность : 1 ч. 27 м.
Вид битрейта : Переменный
Битрейт : 235 бит/сек
Ширина : 640 пикселей
Высота : 268 пикселей
Соотношение сторон : 2,40:1
Режим частоты кадров : Постоянный
Частота кадров : 0,001 кадр/сек
Цветовое пространство : YUV
Субдискретизация насыщенности : 4:2:0
Битовая глубина : 8 бит
Метод сжатия : С потерями
Бит/(Пиксели*Кадры) : 1.370
Размер потока : 287 Кбайт (0%)
Язык : English
Default : Нет
Дата кодирования : UTC 2020-05-14 04:50:31
Дата пометки : UTC 2020-05-14 04:50:31
Menu For : 1
ColorSpace_ICC : RGB

Аудио #1
Идентификатор : 2
Формат : AAC LC
Формат/Информация : Advanced Audio Codec Low Complexity
Идентификатор кодека : mp4a-40-2
Продолжительность : 1 ч. 27 м.
Вид битрейта : Переменный
Битрейт : 197 Кбит/сек
Максимальный битрейт : 328 Кбит/сек
Каналы : 2 канала
Channel layout : L R
Частота : 48,0 КГц
Частота кадров : 46,875 кадров/сек (1024 SPF)
Метод сжатия : С потерями
Размер потока : 123 Мбайт (4%)
Язык : Russian
Default : Да
Alternate group : 1
Дата кодирования : UTC 2020-05-14 04:49:06
Дата пометки : UTC 2020-05-14 04:50:28
Fallback From : 3
tagc : public.main-program-content

Аудио #2
Идентификатор : 3
Формат : AC-3
Формат/Информация : Audio Coding 3
Коммерческое название : Dolby Digital
Идентификатор кодека : ac-3
Продолжительность : 1 ч. 27 м.
Вид битрейта : Постоянный
Битрейт : 384 Кбит/сек
Каналы : 6 каналов
Channel layout : L R C LFE Ls Rs
Частота : 48,0 КГц
Частота кадров : 31,250 кадров/сек (1536 SPF)
Метод сжатия : С потерями
Размер потока : 240 Мбайт (8%)
Язык : Russian
Service kind : Complete Main
Default : Inherited From: 2
Alternate group : 1
Дата кодирования : UTC 2020-05-14 04:49:06
Дата пометки : UTC 2020-05-14 04:50:28
Fallback To : 2
tagc : public.main-program-content

Меню
Идентификатор : 4
Идентификатор кодека : text
Продолжительность : 1 ч. 27 м.
Язык : English
Дата кодирования : UTC 2020-05-14 04:50:28
Дата пометки : UTC 2020-05-14 04:50:28
Menu For : 1
00:00:00.000 : Глава 1
00:08:11.741 : Глава 2
00:16:13.931 : Глава 3
00:24:18.790 : Глава 4
00:32:26.736 : Глава 5
00:40:57.037 : Глава 6
00:49:08.528 : Глава 7
00:57:20.937 : Глава 8
01:05:31.636 : Глава 9
01:13:55.640 : Глава 10


Name: Ловушка разума
Artist: Джилли Клебин
Media Kind: Movie
HD Video: 720p
Genre: Боевики и приключения
Release Date: 2020-05-14T07:00:00Z
Long Description: …Вам случалось видеть настолько реальные сны, что, проснувшись, вы не понимали, где вы? То же самое произошло с этим парнем.
Фрэнк - обычный женатик и рядовой юрист крупной страховой компании, вдруг получает шанс всей жизни: он находит лазейку, как не платить пострадавшему клиенту 4 млн долларов. Предвкушая, как он презентует свою находку руководству, Фрэнк принимает предложение коллеги отправиться на ночную тусовку. В круговороте событий, Фрэнк с новой подругой оказывается перед выбором, как у Нео: принимать ли особое средство или нет. Стремясь показаться перед новой подругой максимально крутым мачо, Фрэнк делает роковой выбор и оказывается в... петле времени. Сможет ли он разгадать этот квест и вернуться к нормальной жизни? Успеет ли он попасть на презентацию, чтобы получить повышение и премию или выберет невероятные приключения с новой девушкой, забыв про истеричную жену?
Rating: ru-movie|16+|375|
Studio: Filmsmith Productions
Cast: Джастин Лонг, Томми Флэнаган, Donald Faison, Катя Винтер
Director: Джилли Клебин
Producers: Карл Лукас
Screenwriters: Карл Лукас
Copyright: © Кинологистика
content ID: 1510305874
iTunes Country: 143469

Скриншоты:


Все одноименные релизы в Клубе
Время раздачи: 24/7 (до появления первых 3-5 скачавших)

Релиз подготовлен для просмотра на Apple TV, iPad, iPhone, iPod Touch.
Для просмотра данного релиза на компьютере с ОС Windows рекомендуется использовать VLC media player
The.Wave.2019.WEB-DL.720p.NNMClub.m4v.torrent
 Торрент: Платиновая раздача  Зарегистрирован
 
Скачать


Примагнититься
 Зарегистрирован:   14 Май 2020 08:11:55
 Размер:   2,83 GB  (
 Рейтинг:    (Голосов: 9)
 Поблагодарили:   59
 Проверка:   Оформление проверено модератором 14 Май 2020 15:23:44
Как cкачать  ·  Как раздать  ·  Правильно оформить  ·  Поднять ратио!  

_________________
«Всё против нас, только ветер навстречу…».
🍏Apple iMac 21.5 (mid 2011) / Intel Core i5 2.7 GHz / AMD Radeon HD 6770M 512 Mb / 12GB DDR3 / Apple Trackpad, Apple Keyboard / macOS High Sierra 10.13.6 (17G12034)
Показать сообщения:   
Начать новую тему   Ответить на тему    Торрент-трекер NNM-Club -> Аудио и Видео -> Зарубежное видео HD для устройств Apple Часовой пояс: GMT + 3
Страница 1 из 1