Классический форум-трекер
canvas not supported
Нас вместе: 4 114 607

Трюкач / The Stunt Man (1980) BDRip [720p] ATV


 
 
RSS
Начать новую тему   Ответить на тему    Торрент-трекер NNM-Club -> Аудио и Видео -> Зарубежное видео для устройств Apple
Автор Сообщение
Весельчак У ®
Модератор Apple
Uploader 100+
Стаж: 6 лет 5 мес.
Сообщений: 6098
Ratio: 160,467
Поблагодарили: 197246
93.13%
Откуда: От Москвы недалеко...
ussr.gif
Трюкач / The Stunt Man (1980) BDRip [720p] ATV«'If God could do the things that we can do, he'd be a happy man . . .'»
Производство: США / 20th Century Fox
Жанр: Боевик, триллер, драма, мелодрама, комедия

Режиссер: Ричард Раш
Продюсер: Ричард Раш, Пол Льюис, Мелвин Саймон
Актеры: Питер О`Тул, Стив Рэйлсбэк, Барбара Херши, Чак Бэйл, Аллен Гурвитц, Адам Рорк, Филлип Бранс, Шэрон Фэррелл, Алекс Рокко

Описание:
Скрываясь от полиции, Кеймерон попадает на съемочную площадку фильма о Первой мировой войне. Жестокому режиссеру Кроссу нужен человек, который заменил бы погибшего каскадера. Кеймерон получает укрытие, но он должен заменить каскадера.
Пройдя ужасы вьетнамской войны, Кеймерон в роли американского летчика, демонстрирует фантастическое мужество.


Возраст: 16+ (зрителям, достигшим 16 лет)
Рейтинг MPAA: R (лицам до 17 лет обязательно присутствие взрослого)

Релиз от: NNMClub

Продолжительность: 02:10:42
Качество видео: BDRip 720p
Перевод: Дублированный, профессиональный многоголосый, авторский одноголосый
Субтитры: Русские (Forced, full)

Видео: H.264, 1280x690 (1,85:1), ~7095 kbps, 23.976 fps
Аудио#1: AAC, 2.0 ch, 190 Kbps - Русский DUB
Аудио#2: AAC, 2.0 ch, 183 Kbps - Русский MVO
Аудио#3: AAC, 2.0 ch, 176 Kbps - Русский AVO, А. Гаврилов
Аудио#4: AAC, 2.0 ch, 185 Kbps - Русский AVO, А. Михалев
Аудио#5: AAC, 2.0 ch, 184 Kbps - Русский AVO, А. Матвеев
Аудио#6: AAC, 2.0 ch, 182 Kbps - English Original
Аудио#7: AC3, 6.0 ch, 448 Kbps - Русский DUB
Аудио#8: AC3, 6.0 ch, 448 Kbps - Русский MVO
Аудио#9: AC3, 6.0 ch, 448 Kbps - Русский AVO, А. Гаврилов
Аудио#10: AC3, 6.0 ch, 448 Kbps - Русский AVO, А. Михалев
Аудио#11: AC3, 6.0 ch, 448 Kbps - Русский AVO, А. Матвеев
Аудио#12: AC3, 6.0 ch, 448 Kbps - English Original

Общее
Полное имя : /Volumes/HDD/Dropbox/The.Stunt.Man.1980.BDRip.720p.NNMClub.m4v
Формат : MPEG-4
Идентификатор кодека : M4V (M4V /M4A /mp42/isom)
Размер файла : 9,89 Гбайт
Продолжительность : 2 ч. 10 м.
Режим общего битрейта : Переменный
Общий поток : 10,8 Мбит/сек
Название фильма : Трюкач
Исполнитель : Richard Rush
Режиссёр : Richard Rush
Исполнитель : Peter O'Toole / Steve Railsback / Barbara Hershey / Allen Garfield / Alex Rocco / Sharon Farrell / Adam Roarke / Philip Bruns / Charles Bail / John Garwood / Jim Hess / John Pearce / Michael Railsback / George Wallace / Dee Carroll / Leslie Winograde / Don Kennedy / Whitey Hughes / Walter Robles / A.J. Bakunas / Roberto Caruso / Frank Avila / Stafford Morgan / John Alderman / Jack Palinkas / James Garrett / Garrett McPherson / Nelson Tyler / Louis Gartner / James Avery / Gregg Berger / Patricia McPherson
Сценарист : Richard Rush / Lawrence B. Marcus / Paul Brodeur
Продюсер : Richard Rush
Исполнительный продюсер : Melvin Simon
Студия-производитель : Simon Productions, 20th Century Fox
Жанр : боевик, комедия, драма, триллер
Тип содержимого : Short Film
Дата записи : UTC 1980-06-27 12:00:00
Дата кодирования : UTC 2020-05-14 18:19:20
Дата пометки : UTC 2020-05-14 18:25:08
Обложка : Yes
LongDescription : Скрываясь от полиции, Кеймерон попадает на съемочную площадку фильма о Первой мировой войне. Жестокому режиссеру Кроссу нужен человек, который заменил бы погибшего каскадера. Кеймерон получает укрытие, но он должен заменить каскадера. Прошедший ужасы вьетнамской войны, Кеймерон в роли американского летчика демонстрирует фантастическое мужество.
HDVideo : Yes
ContentRating : mpaa|R|400|

Видео #1
Идентификатор : 1
Формат : AVC
Формат/Информация : Advanced Video Codec
Профиль формата : High@L4.1
Настройки формата : CABAC / 5 Ref Frames
Параметр CABAC формата : Да
Параметр ReFrames формата : 5 кадров
Идентификатор кодека : avc1
Идентификатор кодека/Информация : Advanced Video Coding
Продолжительность : 2 ч. 10 м.
Битрейт : 7 095 Кбит/сек
Ширина : 1 280 пикселей
Высота : 690 пикселей
Соотношение сторон : 1,85:1
Режим частоты кадров : Переменный
Частота кадров : 23,976 (24000/1001) кадра/сек
Минимальная частота кадров : 23,810 кадра/сек
Максимальная частота кадров : 24,390 кадра/сек
Цветовое пространство : YUV
Субдискретизация насыщенности : 4:2:0
Битовая глубина : 8 бит
Тип развёртки : Прогрессивная
Бит/(Пиксели*Кадры) : 0.335
Размер потока : 6,48 Гбайт (65%)
Библиотека кодирования : x264 core 142 r2479 dd79a61
Настройки программы : cabac=1 / ref=5 / deblock=1:-3:-3 / analyse=0x3:0x113 / me=umh / subme=8 / psy=1 / psy_rd=2.00:0.70 / mixed_ref=1 / me_range=16 / chroma_me=1 / trellis=1 / 8x8dct=1 / cqm=0 / deadzone=21,11 / fast_pskip=1 / chroma_qp_offset=-4 / threads=12 / lookahead_threads=2 / sliced_threads=0 / nr=0 / decimate=1 / interlaced=0 / bluray_compat=0 / constrained_intra=0 / bframes=3 / b_pyramid=2 / b_adapt=2 / b_bias=0 / direct=3 / weightb=1 / open_gop=0 / weightp=2 / keyint=240 / keyint_min=24 / scenecut=40 / intra_refresh=0 / rc_lookahead=50 / rc=crf / mbtree=1 / crf=21.0 / qcomp=0.60 / qpmin=0 / qpmax=69 / qpstep=4 / vbv_maxrate=62500 / vbv_bufsize=78125 / crf_max=0.0 / nal_hrd=none / filler=0 / ip_ratio=1.40 / aq=1:1.20
Дата кодирования : UTC 2020-05-14 18:19:20
Дата пометки : UTC 2020-05-14 18:24:52
Цветовой диапазон : Limited
Основные цвета : BT.709
Характеристики трансфера : BT.709
Коэффициенты матрицы : BT.709
Menus : 16,17
Codec configuration box : avcC

Видео #2
Идентификатор : 17
Формат : JPEG
Идентификатор кодека : jpeg
Продолжительность : 2 ч. 10 м.
Вид битрейта : Переменный
Битрейт : 1 139 бит/сек
Ширина : 640 пикселей
Высота : 345 пикселей
Соотношение сторон : 1,85:1
Режим частоты кадров : Переменный
Частота кадров : 0,003 кадр/сек
Минимальная частота кадров : 0,001 кадр/сек
Максимальная частота кадров : 0,006 кадр/сек
Цветовое пространство : YUV
Субдискретизация насыщенности : 4:2:0
Битовая глубина : 8 бит
Метод сжатия : С потерями
Бит/(Пиксели*Кадры) : 1.720
Размер потока : 927 Кбайт (0%)
Default : Нет
Дата кодирования : UTC 2020-05-14 18:25:06
Дата пометки : UTC 2020-05-14 18:25:07
Menu For : 1
ColorSpace_ICC : RGB

Аудио #1
Идентификатор : 2
Формат : AAC LC
Формат/Информация : Advanced Audio Codec Low Complexity
Идентификатор кодека : mp4a-40-2
Продолжительность : 2 ч. 10 м.
Продолжительность оригинала : 2 ч. 10 м.
Вид битрейта : Переменный
Номинальный битрейт : 190 Кбит/сек
Максимальный битрейт : 278 Кбит/сек
Каналы : 2 канала
Channel layout : L R
Частота : 48,0 КГц
Частота кадров : 46,875 кадров/сек (1024 SPF)
Метод сжатия : С потерями
Размер потока оригинала : 177 Мбайт (2%)
Язык : Russian
Default : Да
Alternate group : 1
Дата кодирования : UTC 2020-05-14 18:19:20
Дата пометки : UTC 2020-05-14 18:24:52
Fallback From : 8
tagc : public.main-program-content

Аудио #2
Идентификатор : 3
Формат : AAC LC
Формат/Информация : Advanced Audio Codec Low Complexity
Идентификатор кодека : mp4a-40-2
Продолжительность : 2 ч. 10 м.
Продолжительность оригинала : 2 ч. 10 м.
Вид битрейта : Переменный
Номинальный битрейт : 183 Кбит/сек
Максимальный битрейт : 271 Кбит/сек
Каналы : 2 канала
Channel layout : L R
Частота : 48,0 КГц
Частота кадров : 46,875 кадров/сек (1024 SPF)
Метод сжатия : С потерями
Размер потока оригинала : 171 Мбайт (2%)
Язык : Russian
Default : Нет
Alternate group : 1
Дата кодирования : UTC 2020-05-14 18:19:20
Дата пометки : UTC 2020-05-14 18:24:52
Fallback From : 9
tagc : public.auxiliary-content

Аудио #3
Идентификатор : 4
Формат : AAC LC
Формат/Информация : Advanced Audio Codec Low Complexity
Идентификатор кодека : mp4a-40-2
Продолжительность : 2 ч. 10 м.
Продолжительность оригинала : 2 ч. 10 м.
Вид битрейта : Переменный
Номинальный битрейт : 176 Кбит/сек
Максимальный битрейт : 266 Кбит/сек
Каналы : 2 канала
Channel layout : L R
Частота : 48,0 КГц
Частота кадров : 46,875 кадров/сек (1024 SPF)
Метод сжатия : С потерями
Размер потока оригинала : 164 Мбайт (2%)
Язык : Russian
Default : Нет
Alternate group : 1
Дата кодирования : UTC 2020-05-14 18:19:20
Дата пометки : UTC 2020-05-14 18:24:52
Fallback From : 10
tagc : public.auxiliary-content

Аудио #4
Идентификатор : 5
Формат : AAC LC
Формат/Информация : Advanced Audio Codec Low Complexity
Идентификатор кодека : mp4a-40-2
Продолжительность : 2 ч. 10 м.
Продолжительность оригинала : 2 ч. 10 м.
Вид битрейта : Переменный
Номинальный битрейт : 185 Кбит/сек
Максимальный битрейт : 276 Кбит/сек
Каналы : 2 канала
Channel layout : L R
Частота : 48,0 КГц
Частота кадров : 46,875 кадров/сек (1024 SPF)
Метод сжатия : С потерями
Размер потока оригинала : 173 Мбайт (2%)
Язык : Russian
Default : Нет
Alternate group : 1
Дата кодирования : UTC 2020-05-14 18:19:20
Дата пометки : UTC 2020-05-14 18:24:52
Fallback From : 11
tagc : public.auxiliary-content

Аудио #5
Идентификатор : 6
Формат : AAC LC
Формат/Информация : Advanced Audio Codec Low Complexity
Идентификатор кодека : mp4a-40-2
Продолжительность : 2 ч. 10 м.
Продолжительность оригинала : 2 ч. 10 м.
Вид битрейта : Переменный
Номинальный битрейт : 184 Кбит/сек
Максимальный битрейт : 287 Кбит/сек
Каналы : 2 канала
Channel layout : L R
Частота : 48,0 КГц
Частота кадров : 46,875 кадров/сек (1024 SPF)
Метод сжатия : С потерями
Размер потока оригинала : 172 Мбайт (2%)
Язык : Russian
Default : Нет
Alternate group : 1
Дата кодирования : UTC 2020-05-14 18:19:20
Дата пометки : UTC 2020-05-14 18:24:52
Fallback From : 12
tagc : public.auxiliary-content

Аудио #6
Идентификатор : 7
Формат : AAC LC
Формат/Информация : Advanced Audio Codec Low Complexity
Идентификатор кодека : mp4a-40-2
Продолжительность : 2 ч. 10 м.
Продолжительность оригинала : 2 ч. 10 м.
Вид битрейта : Переменный
Номинальный битрейт : 182 Кбит/сек
Максимальный битрейт : 284 Кбит/сек
Каналы : 2 канала
Channel layout : L R
Частота : 48,0 КГц
Частота кадров : 46,875 кадров/сек (1024 SPF)
Метод сжатия : С потерями
Размер потока оригинала : 170 Мбайт (2%)
Язык : English
Default : Нет
Alternate group : 1
Дата кодирования : UTC 2020-05-14 18:19:20
Дата пометки : UTC 2020-05-14 18:24:52
Fallback From : 13
tagc : public.main-program-content

Аудио #7
Идентификатор : 8
Формат : AC-3
Формат/Информация : Audio Coding 3
Коммерческое название : Dolby Digital
Идентификатор кодека : ac-3
Продолжительность : 2 ч. 10 м.
Продолжительность оригинала : 2 ч. 10 м.
Вид битрейта : Постоянный
Битрейт : 448 Кбит/сек
Каналы : 6 каналов
Channel layout : L R C LFE Ls Rs
Частота : 48,0 КГц
Частота кадров : 31,250 кадров/сек (1536 SPF)
Метод сжатия : С потерями
Размер потока : 418 Мбайт (4%)
Размер потока оригинала : 418 Мбайт (4%)
Язык : Russian
Service kind : Complete Main
Default : Inherited From: 2
Alternate group : 1
Дата кодирования : UTC 2020-05-14 18:19:20
Дата пометки : UTC 2020-05-14 18:24:52
Fallback To : 2
tagc : public.main-program-content

Аудио #8
Идентификатор : 9
Формат : AC-3
Формат/Информация : Audio Coding 3
Коммерческое название : Dolby Digital
Идентификатор кодека : ac-3
Продолжительность : 2 ч. 10 м.
Продолжительность оригинала : 2 ч. 10 м.
Вид битрейта : Постоянный
Битрейт : 448 Кбит/сек
Каналы : 6 каналов
Channel layout : L R C LFE Ls Rs
Частота : 48,0 КГц
Частота кадров : 31,250 кадров/сек (1536 SPF)
Метод сжатия : С потерями
Размер потока : 418 Мбайт (4%)
Размер потока оригинала : 418 Мбайт (4%)
Язык : Russian
Service kind : Complete Main
Default : Нет
Alternate group : 1
Дата кодирования : UTC 2020-05-14 18:19:20
Дата пометки : UTC 2020-05-14 18:24:52
Fallback To : 3
tagc : public.auxiliary-content

Аудио #9
Идентификатор : 10
Формат : AC-3
Формат/Информация : Audio Coding 3
Коммерческое название : Dolby Digital
Идентификатор кодека : ac-3
Продолжительность : 2 ч. 10 м.
Продолжительность оригинала : 2 ч. 10 м.
Вид битрейта : Постоянный
Битрейт : 384 Кбит/сек
Каналы : 6 каналов
Channel layout : L R C LFE Ls Rs
Частота : 48,0 КГц
Частота кадров : 31,250 кадров/сек (1536 SPF)
Метод сжатия : С потерями
Размер потока : 359 Мбайт (4%)
Размер потока оригинала : 359 Мбайт (4%)
Язык : Russian
Service kind : Complete Main
Default : Нет
Alternate group : 1
Дата кодирования : UTC 2020-05-14 18:19:20
Дата пометки : UTC 2020-05-14 18:24:52
Fallback To : 4
tagc : public.auxiliary-content

Аудио #10
Идентификатор : 11
Формат : AC-3
Формат/Информация : Audio Coding 3
Коммерческое название : Dolby Digital
Идентификатор кодека : ac-3
Продолжительность : 2 ч. 10 м.
Продолжительность оригинала : 2 ч. 10 м.
Вид битрейта : Постоянный
Битрейт : 448 Кбит/сек
Каналы : 6 каналов
Channel layout : L R C LFE Ls Rs
Частота : 48,0 КГц
Частота кадров : 31,250 кадров/сек (1536 SPF)
Метод сжатия : С потерями
Размер потока : 418 Мбайт (4%)
Размер потока оригинала : 418 Мбайт (4%)
Язык : Russian
Service kind : Complete Main
Default : Нет
Alternate group : 1
Дата кодирования : UTC 2020-05-14 18:19:20
Дата пометки : UTC 2020-05-14 18:24:52
Fallback To : 5
tagc : public.auxiliary-content

Аудио #11
Идентификатор : 12
Формат : AC-3
Формат/Информация : Audio Coding 3
Коммерческое название : Dolby Digital
Идентификатор кодека : ac-3
Продолжительность : 2 ч. 10 м.
Продолжительность оригинала : 2 ч. 10 м.
Вид битрейта : Постоянный
Битрейт : 448 Кбит/сек
Каналы : 6 каналов
Channel layout : L R C LFE Ls Rs
Частота : 48,0 КГц
Частота кадров : 31,250 кадров/сек (1536 SPF)
Метод сжатия : С потерями
Размер потока : 419 Мбайт (4%)
Размер потока оригинала : 419 Мбайт (4%)
Язык : Russian
Service kind : Complete Main
Default : Нет
Alternate group : 1
Дата кодирования : UTC 2020-05-14 18:19:20
Дата пометки : UTC 2020-05-14 18:24:52
Fallback To : 6
tagc : public.auxiliary-content

Аудио #12
Идентификатор : 13
Формат : AC-3
Формат/Информация : Audio Coding 3
Коммерческое название : Dolby Digital
Идентификатор кодека : ac-3
Продолжительность : 2 ч. 10 м.
Продолжительность оригинала : 2 ч. 10 м.
Вид битрейта : Постоянный
Битрейт : 448 Кбит/сек
Каналы : 6 каналов
Channel layout : L R C LFE Ls Rs
Частота : 48,0 КГц
Частота кадров : 31,250 кадров/сек (1536 SPF)
Метод сжатия : С потерями
Размер потока : 419 Мбайт (4%)
Размер потока оригинала : 419 Мбайт (4%)
Язык : English
Service kind : Complete Main
Default : Нет
Alternate group : 1
Дата кодирования : UTC 2020-05-14 18:19:20
Дата пометки : UTC 2020-05-14 18:24:52
Fallback To : 7
tagc : public.main-program-content

Текст #1
Идентификатор : 14
Формат : Timed Text
Режим смешивания : sbtl
Идентификатор кодека : tx3g
Продолжительность : 2 ч. 10 м.
Вид битрейта : Переменный
Битрейт : 2 бит/сек
Размер потока : 1,57 Кбайт (0%)
Язык : Russian
Default : Да
Forced : Нет
Alternate group : 2
Дата кодирования : UTC 2020-05-14 18:19:20
Дата пометки : UTC 2020-05-14 18:24:52
tagc : public.main-program-content

Текст #2
Идентификатор : 15
Формат : Timed Text
Режим смешивания : sbtl
Идентификатор кодека : tx3g
Продолжительность : 2 ч. 10 м.
Вид битрейта : Переменный
Битрейт : 103 бит/сек
Размер потока : 98,4 Кбайт (0%)
Язык : Russian
Default : Нет
Forced : Нет
Alternate group : 2
Дата кодирования : UTC 2020-05-14 18:19:20
Дата пометки : UTC 2020-05-14 18:24:52
tagc : public.auxiliary-content

Меню
Идентификатор : 16
Идентификатор кодека : text
Продолжительность : 2 ч. 10 м.
Язык : English
Дата кодирования : UTC 2020-05-14 18:24:52
Дата пометки : UTC 2020-05-14 18:24:52
Menu For : 1
00:00:00.000 : Chapter 1
00:06:11.120 : Chapter 2
00:10:53.903 : Chapter 3
00:15:26.091 : Chapter 4
00:23:28.573 : Chapter 5
00:27:12.505 : Chapter 6
00:34:15.928 : Chapter 7
00:40:23.379 : Chapter 8
00:48:08.051 : Chapter 9
01:00:09.230 : Chapter 10
01:08:11.170 : Chapter 11
01:12:34.308 : Chapter 12
01:20:25.362 : Chapter 13
01:28:35.727 : Chapter 14
01:31:20.683 : Chapter 15
01:36:31.827 : Chapter 16
01:46:46.942 : Chapter 17
01:51:15.252 : Chapter 18
01:56:40.868 : Chapter 19
02:01:17.728 : Chapter 20


Name: Трюкач
Artist: Richard Rush
Media Kind: Movie
HD Video: 1
Genre: боевик, комедия, драма, триллер
Release Date: 1980-06-27T12:00:00Z
Long Description: Скрываясь от полиции, Кеймерон попадает на съемочную площадку фильма о Первой мировой войне. Жестокому режиссеру Кроссу нужен человек, который заменил бы погибшего каскадера. Кеймерон получает укрытие, но он должен заменить каскадера. Прошедший ужасы вьетнамской войны, Кеймерон в роли американского летчика демонстрирует фантастическое мужество.
Rating: mpaa|R|400|
Studio: Simon Productions, 20th Century Fox
Cast: Peter O'Toole, Steve Railsback, Barbara Hershey, Allen Garfield, Alex Rocco, Sharon Farrell, Adam Roarke, Philip Bruns, Charles Bail, John Garwood, Jim Hess, John Pearce, Michael Railsback, George Wallace, Dee Carroll, Leslie Winograde, Don Kennedy, Whitey Hughes, Walter Robles, A.J. Bakunas, Roberto Caruso, Frank Avila, Stafford Morgan, John Alderman, Jack Palinkas, James Garrett, Garrett McPherson, Nelson Tyler, Louis Gartner, James Avery, Gregg Berger, Patricia McPherson
Director: Richard Rush
Producers: Richard Rush
Executive Producer: Melvin Simon
Screenwriters: Richard Rush, Lawrence B. Marcus, Paul Brodeur

Скриншоты:


Все одноименные релизы в Клубе
Время раздачи: 24/7 (до появления первых 3-5 скачавших)

Релиз подготовлен для просмотра на Apple TV, iPad, iPhone, iPod Touch.
Для просмотра данного релиза на компьютере с ОС Windows рекомендуется использовать VLC media player
The.Stunt.Man.1980.BDRip.720p.NNMClub.m4v.torrent
 Торрент: Платиновая раздача  Зарегистрирован
 
Скачать


Примагнититься
 Зарегистрирован:   14 Май 2020 21:49:40
 Размер:   9,89 GB  (
 Рейтинг:   5 (Голосов: 14)
 Поблагодарили:   50
 Проверка:   Оформление проверено модератором 14 Май 2020 22:32:11
Как cкачать  ·  Как раздать  ·  Правильно оформить  ·  Поднять ратио!  

_________________
«Всё против нас, только ветер навстречу…».
🍏Apple iMac 21.5 (mid 2011) / Intel Core i5 2.7 GHz / AMD Radeon HD 6770M 512 Mb / 12GB DDR3 / Apple Trackpad, Apple Keyboard / macOS High Sierra 10.13.6 (17G13033)
blahblah
 
Стаж: 13 лет 5 мес.
Сообщений: 407
Ratio: 13,555
Раздал: 2,159 TB
Поблагодарили: 5609
100%
Откуда: Vancouver
canada.gif
Мой любимый фильм. Я смотрел его, наверно, сотни раз! А музыка.... слов нет, одни чувства!

_________________
Жизнь - это то, что происxодит, пока ты строишь планы (Д.Леннон)
Хочешь рассмешить бога - расскажи ему о своих планах (unknown)
Показать сообщения:   
Начать новую тему   Ответить на тему    Торрент-трекер NNM-Club -> Аудио и Видео -> Зарубежное видео для устройств Apple Часовой пояс: GMT + 3
Страница 1 из 1