Классический форум-трекер
canvas not supported
Нас вместе: 4 114 444

Не бери в голову / Nevermind (2018) WEB-DL [1080p] ATV [MVO]


 
 
RSS
Начать новую тему   Ответить на тему    Торрент-трекер NNM-Club -> Аудио и Видео -> Зарубежное видео HD для устройств Apple
Автор Сообщение
Весельчак У ®
Модератор Apple
Uploader 100+
Стаж: 6 лет 5 мес.
Сообщений: 6111
Ratio: 160,842
Поблагодарили: 197629
93%
Откуда: От Москвы недалеко...
ussr.gif
Не бери в голову / Nevermind (2018) WEB-DL [1080p] ATV
Производство: Италия / Minerva Pictures, Monkey King Pictures, Déjà vu production
Жанр: Комедия

Режиссер: Эрос Пульелли
Продюсер: Данило Ачиторио, Джанлука Курти, Риккардо Манчини
Актеры: Паоло Сассанелли, Андреа Сарторетти, Джулия Микелини, Массимо Поджо, Альберто Молинари, Гуальтьеро Бурци, Ренато Скарпа, Пиа Энглберс, Аврора Эрги, Джанлука Гобби

Описание:
Жизнь пяти людей переворачивается с ног на голову, когда все они оказываются в парадоксальных ситуациях. Свидетель одного эпизода становится главным героем следующего. Пять историй, связанных красной нитью безумия, приводят героев к необходимости делать неожиданный выбор.


Возраст: 16+ (зрителям, достигшим 16 лет)
Дата мировой премьеры: 27 октября 2018

Релиз от: NNMClub

Продолжительность: 01:55:12
Качество видео: WEB-DL 1080р
Перевод: Профессиональный многоголосый (iTunes)
Субтитры: Русские (вшитые, отключаемые)

Видео: H.264, 1920x804 (2.40:1), ~4597 kbps, 25.000 fps
Аудио#1: AAC, 2.0 ch, 196 Kbps - Русский MVO, iTunes
Аудио#2: AAC, 2.0 ch, 197 Kbps - Italian Original
Аудио#3: AC3, 6.0 ch, 384 Kbps - Русский MVO, iTunes
Аудио#4: AC3, 6.0 ch, 384 Kbps - Italian Original

Общее
Полное имя : /Volumes/HDD/Movies/NNMClub/Nevermind.2018.WEB-DL.1080p.NNMClub.m4v
Формат : MPEG-4
Идентификатор кодека : M4V (M4V /M4A /mp42/isom)
Размер файла : 4,64 Гбайт
Продолжительность : 1 ч. 55 м.
Режим общего битрейта : Переменный
Общий поток : 5 767 Кбит/сек
Название фильма : Не бери в голову
Исполнитель : Eros Puglielli
Режиссёр : Eros Puglielli
Исполнитель : Paolo Sassanelli / Andrea Sartoretti / Giulia Michelini / Massimo Poggio / Alberto Molinari / Lucia Gravante / Gualtiero Burzi / Renato Scarpa / Pia Engleberth / Aurore Erguy / Gianluca Gobbi / Antonio Merone / Gianna Giachetti / Luis Molteni / Paolo Romano / Claudia Coli / Daniele Natali / Dagmar Lassander / Federica Di Martino
Сценарист : Eros Puglielli / Giulia Gianni / Antonio Muoio / Francesca Sambataro
Продюсер : Gianluca Curti / Eros Puglielli / Daniele Tomassetti / Antonio Muoio / Danilo Acitorio / Riccardo Mancini / Fabio Tomassetti
Студия-производитель : Déjà vu production, Minerva Pictures, Monkey King Pictures
Жанр : комедия
Тип содержимого : Short Film
Дата записи : UTC 2019-08-01 12:00:00
Дата кодирования : UTC 2020-05-18 19:07:50
Дата пометки : UTC 2020-05-18 19:11:51
Обложка : Yes
LongDescription : Жизнь пяти людей переворачивается с ног на голову, когда все они оказываются в парадоксальных ситуациях. Свидетель одного эпизода становится главным героем следующего. Пять историй, связанных красной нитью безумия, приводят героев к необходимости делать неожиданный выбор.

Видео #1
Идентификатор : 1
Формат : AVC
Формат/Информация : Advanced Video Codec
Профиль формата : High@L4
Настройки формата : CABAC / 5 Ref Frames
Параметр CABAC формата : Да
Параметр ReFrames формата : 5 кадров
Идентификатор кодека : avc1
Идентификатор кодека/Информация : Advanced Video Coding
Продолжительность : 1 ч. 55 м.
Битрейт : 4 597 Кбит/сек
Ширина : 1 920 пикселей
Высота : 804 пикселя
Соотношение сторон : 2,40:1
Режим частоты кадров : Постоянный
Частота кадров : 25,000 кадров/сек
Цветовое пространство : YUV
Субдискретизация насыщенности : 4:2:0
Битовая глубина : 8 бит
Тип развёртки : Прогрессивная
Бит/(Пиксели*Кадры) : 0.119
Размер потока : 3,70 Гбайт (80%)
Язык : English
Дата кодирования : UTC 2020-05-18 19:07:50
Дата пометки : UTC 2020-05-18 19:11:43
Цветовой диапазон : Limited
Основные цвета : BT.709
Характеристики трансфера : BT.709
Коэффициенты матрицы : BT.709
Menus : 7,8
Codec configuration box : avcC

Видео #2
Идентификатор : 8
Формат : JPEG
Идентификатор кодека : jpeg
Продолжительность : 1 ч. 55 м.
Вид битрейта : Переменный
Битрейт : 589 бит/сек
Ширина : 640 пикселей
Высота : 268 пикселей
Соотношение сторон : 2,40:1
Режим частоты кадров : Переменный
Частота кадров : 0,002 кадр/сек
Минимальная частота кадров : 0,002 кадр/сек
Максимальная частота кадров : 0,003 кадр/сек
Цветовое пространство : YUV
Субдискретизация насыщенности : 4:2:0
Битовая глубина : 8 бит
Метод сжатия : С потерями
Бит/(Пиксели*Кадры) : 1.717
Размер потока : 611 Кбайт (0%)
Язык : English
Default : Нет
Дата кодирования : UTC 2020-05-18 19:11:50
Дата пометки : UTC 2020-05-18 19:11:51
Menu For : 1
ColorSpace_ICC : RGB

Аудио #1
Идентификатор : 2
Формат : AAC LC
Формат/Информация : Advanced Audio Codec Low Complexity
Идентификатор кодека : mp4a-40-2
Продолжительность : 1 ч. 55 м.
Вид битрейта : Переменный
Битрейт : 196 Кбит/сек
Максимальный битрейт : 318 Кбит/сек
Каналы : 2 канала
Channel layout : L R
Частота : 48,0 КГц
Частота кадров : 46,875 кадров/сек (1024 SPF)
Метод сжатия : С потерями
Размер потока : 162 Мбайт (3%)
Язык : Russian
Default : Да
Alternate group : 1
Дата кодирования : UTC 2020-05-18 19:07:50
Дата пометки : UTC 2020-05-18 19:11:43
Fallback From : 4
tagc : public.main-program-content

Аудио #2
Идентификатор : 3
Формат : AAC LC
Формат/Информация : Advanced Audio Codec Low Complexity
Идентификатор кодека : mp4a-40-2
Продолжительность : 1 ч. 55 м.
Вид битрейта : Переменный
Битрейт : 197 Кбит/сек
Максимальный битрейт : 316 Кбит/сек
Каналы : 2 канала
Channel layout : L R
Частота : 48,0 КГц
Частота кадров : 46,875 кадров/сек (1024 SPF)
Метод сжатия : С потерями
Размер потока : 162 Мбайт (3%)
Язык : Italian
Default : Нет
Alternate group : 1
Дата кодирования : UTC 2020-05-18 19:07:50
Дата пометки : UTC 2020-05-18 19:11:43
Fallback From : 5
tagc : public.main-program-content

Аудио #3
Идентификатор : 4
Формат : AC-3
Формат/Информация : Audio Coding 3
Коммерческое название : Dolby Digital
Идентификатор кодека : ac-3
Продолжительность : 1 ч. 55 м.
Вид битрейта : Постоянный
Битрейт : 384 Кбит/сек
Каналы : 6 каналов
Channel layout : L R C LFE Ls Rs
Частота : 48,0 КГц
Частота кадров : 31,250 кадров/сек (1536 SPF)
Метод сжатия : С потерями
Размер потока : 316 Мбайт (7%)
Язык : Russian
Service kind : Complete Main
Default : Inherited From: 2
Alternate group : 1
Дата кодирования : UTC 2020-05-18 19:07:50
Дата пометки : UTC 2020-05-18 19:11:43
Fallback To : 2
tagc : public.main-program-content

Аудио #4
Идентификатор : 5
Формат : AC-3
Формат/Информация : Audio Coding 3
Коммерческое название : Dolby Digital
Идентификатор кодека : ac-3
Продолжительность : 1 ч. 55 м.
Вид битрейта : Постоянный
Битрейт : 384 Кбит/сек
Каналы : 6 каналов
Channel layout : L R C LFE Ls Rs
Частота : 48,0 КГц
Частота кадров : 31,250 кадров/сек (1536 SPF)
Метод сжатия : С потерями
Размер потока : 316 Мбайт (7%)
Язык : Italian
Service kind : Complete Main
Default : Нет
Alternate group : 1
Дата кодирования : UTC 2020-05-18 19:07:50
Дата пометки : UTC 2020-05-18 19:11:43
Fallback To : 3
tagc : public.main-program-content

Текст
Идентификатор : 6
Формат : Timed Text
Режим смешивания : sbtl
Идентификатор кодека : tx3g
Продолжительность : 1 ч. 48 м.
Вид битрейта : Переменный
Битрейт : 94 бит/сек
Размер потока : 74,2 Кбайт (0%)
Язык : Russian
Default : Да
Forced : Нет
Alternate group : 2
Дата кодирования : UTC 2020-05-18 19:07:50
Дата пометки : UTC 2020-05-18 19:11:43
tagc : public.main-program-content

Меню
Идентификатор : 7
Идентификатор кодека : text
Продолжительность : 1 ч. 55 м.
Язык : English
Дата кодирования : UTC 2020-05-18 19:11:43
Дата пометки : UTC 2020-05-18 19:11:43
Menu For : 1
00:00:00.000 : Глава 1
00:08:39.640 : Глава 2
00:16:51.760 : Глава 3
00:21:53.520 : Глава 4
00:26:51.840 : Глава 5
00:34:01.000 : Глава 6
00:40:15.280 : Глава 7
00:48:13.520 : Глава 8
00:55:14.120 : Глава 9
01:02:18.480 : Глава 10
01:08:36.120 : Глава 11
01:15:26.640 : Глава 12
01:21:35.960 : Глава 13
01:26:59.720 : Глава 14
01:33:16.920 : Глава 15
01:38:48.840 : Глава 16
01:45:26.960 : Глава 17


Name: Не бери в голову
Artist: Eros Puglielli
Media Kind: Movie
HD Video: 1080p
Genre: комедия
Release Date: 2019-08-01T12:00:00Z
Long Description: Жизнь пяти людей переворачивается с ног на голову, когда все они оказываются в парадоксальных ситуациях. Свидетель одного эпизода становится главным героем следующего. Пять историй, связанных красной нитью безумия, приводят героев к необходимости делать неожиданный выбор.
Studio: Déjà vu production, Minerva Pictures, Monkey King Pictures
Cast: Paolo Sassanelli, Andrea Sartoretti, Giulia Michelini, Massimo Poggio, Alberto Molinari, Lucia Gravante, Gualtiero Burzi, Renato Scarpa, Pia Engleberth, Aurore Erguy, Gianluca Gobbi, Antonio Merone, Gianna Giachetti, Luis Molteni, Paolo Romano, Claudia Coli, Daniele Natali, Dagmar Lassander, Federica Di Martino
Director: Eros Puglielli
Producers: Gianluca Curti, Eros Puglielli, Daniele Tomassetti, Antonio Muoio, Danilo Acitorio, Riccardo Mancini, Fabio Tomassetti
Screenwriters: Eros Puglielli, Giulia Gianni, Antonio Muoio, Francesca Sambataro

Скриншоты:


Все одноименные релизы в Клубе
Время раздачи: 24/7 (до появления первых 3-5 скачавших)

Релиз подготовлен для просмотра на Apple TV, iPad, iPhone, iPod Touch.
Для просмотра данного релиза на компьютере с ОС Windows рекомендуется использовать VLC media player
Nevermind.2018.WEB-DL.1080p.NNMClub.m4v.torrent
 Торрент: Платиновая раздача  Зарегистрирован
 
Скачать


Примагнититься
 Зарегистрирован:   18 Май 2020 22:17:32
 Размер:   4,64 GB  (
 Рейтинг:   4,4 (Голосов: 10)
 Поблагодарили:   83
 Проверка:   Оформление проверено модератором 18 Май 2020 22:34:54
Как cкачать  ·  Как раздать  ·  Правильно оформить  ·  Поднять ратио!  

_________________
«Всё против нас, только ветер навстречу…».
🍏Apple iMac 21.5 (mid 2011) / Intel Core i5 2.7 GHz / AMD Radeon HD 6770M 512 Mb / 12GB DDR3 / Apple Trackpad, Apple Keyboard / macOS High Sierra 10.13.6 (17G13033)
Показать сообщения:   
Начать новую тему   Ответить на тему    Торрент-трекер NNM-Club -> Аудио и Видео -> Зарубежное видео HD для устройств Apple Часовой пояс: GMT + 3
Страница 1 из 1