Классический форум-трекер
canvas not supported
Нас вместе: 4 113 963

Гроза (2019) WEB-DL [1080p] ATV


 
 
RSS
Начать новую тему   Ответить на тему    Торрент-трекер NNM-Club -> Аудио и Видео -> Отечественное видео HD для устройств Apple
Автор Сообщение
Весельчак У ®
Модератор Apple
Uploader 100+
Стаж: 6 лет 5 мес.
Сообщений: 6003
Ratio: 161,886
Поблагодарили: 195123
93.64%
Откуда: От Москвы недалеко...
ussr.gif
Гроза (2019) WEB-DL [1080p] ATV
Производство: Россия / Лук-фильм
Жанр: Драма

Режиссер: Григорий Константинопольский
Продюсер: Александр Плотников, Евгений Никишов, Валерий Федорович
Актеры: Любовь Аксенова, Сергей Городничий, Василий Буткевич, Александр Кузнецов, Иван Макаревич, Мария Шалаева, Никита Еленев, Виктория Толстоганова, Алексей Макаров, Стася Венкова

Описание:
Действие фильма разворачивается в наши дни в маленьком волжском городке Калинов, где со времен классика Александра Островского ничего не поменялось — если лучи света и появляются в темном царстве, то обречены тихо угаснуть в общей глупости и невежестве, либо ярко сверкнуть в знак протеста против лжи и самодурства. Молодая замужняя женщина Катерина Кабанова живет, на первый взгляд, счастливой жизнью. Разве, что ее свекровь Кабаниха постоянно придирается и не дает вздохнуть спокойно. А слабовольный муж, Тихон, хоть и любит жену, но все время принимает сторону властной матери. А когда Катерина неожиданно для себя влюбляется в родственника мэра города, молодого человека по имени Борис, то обнаруживает, что он тоже испытывает к ней нежные чувства…


Возраст: 16+ (зрителям, достигшим 16 лет)
Дата мировой премьеры: 15 июня 2019

Релиз от: NNMClub

Продолжительность: 01:19:28
Качество видео: WEB-DL 1080р
Перевод: Не требуется (русский)
Субтитры: Отсутствуют

Видео: H.264, 1920x720 (2,667), ~4500 kbps, 25.000 fps
Аудио: AAC, 2.0 ch, 192 Kbps - Русский

Общее
Полное имя : /Volumes/HDD/Movies/NNMClub/Гроза.2019.WEB-DL.1080p.NNMClub.m4v
Формат : MPEG-4
Идентификатор кодека : M4V (M4V /M4A /mp42/isom)
Размер файла : 2,59 Гбайт
Продолжительность : 1 ч. 19 м.
Режим общего битрейта : Переменный
Общий поток : 4 659 Кбит/сек
Название фильма : Гроза
Исполнитель : Grigory Konstantinopolsky
Композитор : Ivan Makarevich
Режиссёр : Grigory Konstantinopolsky
Исполнитель : Lyubov Aksyonova / Viktoriya Tolstoganova / Ivan Makarevich / Mariya Shalaeva / Alisa Khazanova / Aleksey Makarov / Aleksandr Kuznetsov / Sergey Gorodnichy / Vasiliy Butkevich / Nikita Elenev / Anastasiya Venkova / Darya Kashirina / Andrey Garkunov / Dmitry Konduktorov / Denis Molodkin
Сценарист : Grigory Konstantinopolsky / Aleksandr Ostrovsky
Продюсер : Valery Fedorovich / Evgeniy Nikishov / Aleksandr Plotnikov
Исполнительный продюсер : Vladislava Fetisova
Студия-производитель : Look-Film
Жанр : драма
Тип содержимого : Short Film
Дата записи : UTC 2019-06-15 12:00:00
Дата кодирования : UTC 2020-05-21 07:39:09
Дата пометки : UTC 2020-05-21 07:41:05
Обложка : Yes
LongDescription : Действие фильма разворачивается в наши дни в маленьком волжском городе Калинове, где со времен классика Александра Островского ничего не поменялось — если лучи света и появляются в темном царстве, то обречены тихо угаснуть в общей глупости и невежестве либо ярко сверкнуть в знак протеста против лжи и самодурства. Молодая замужняя девушка Катерина Кабанова живет, на первый взгляд, счастливой жизнью. Разве что ее свекровь Кабаниха постоянно придирается и не дает вздохнуть спокойно. А слабовольный муж Тихон, хоть и любит жену, но все время принимает сторону властной матери. Когда Катерина неожиданно для себя влюбляется в родственника мэра города, молодого человека по имени Борис, то обнаруживает, что он тоже испытывает к ней самые нежные чувства…

Видео
Идентификатор : 1
Формат : AVC
Формат/Информация : Advanced Video Codec
Профиль формата : High@L4
Настройки формата : CABAC / 1 Ref Frames
Параметр CABAC формата : Да
Параметр ReFrames формата : 1 кадр
Параметр GOP формата : M=1, N=50
Идентификатор кодека : avc1
Идентификатор кодека/Информация : Advanced Video Coding
Продолжительность : 1 ч. 19 м.
Вид битрейта : Переменный
Битрейт : 4 500 Кбит/сек
Ширина : 1 920 пикселей
Высота : 720 пикселей
Соотношение сторон : 2,667
Режим частоты кадров : Постоянный
Частота кадров : 25,000 кадров/сек
Цветовое пространство : YUV
Субдискретизация насыщенности : 4:2:0
Битовая глубина : 8 бит
Тип развёртки : Прогрессивная
Бит/(Пиксели*Кадры) : 0.130
Размер потока : 2,48 Гбайт (96%)
Язык : English
Дата кодирования : UTC 2020-05-21 07:39:09
Дата пометки : UTC 2020-05-21 07:41:04
Codec configuration box : avcC

Аудио
Идентификатор : 2
Формат : AAC LC
Формат/Информация : Advanced Audio Codec Low Complexity
Идентификатор кодека : mp4a-40-2
Продолжительность : 1 ч. 19 м.
Вид битрейта : Переменный
Битрейт : 192 Кбит/сек
Максимальный битрейт : 211 Кбит/сек
Каналы : 2 канала
Channel layout : L R
Частота : 48,0 КГц
Частота кадров : 46,875 кадров/сек (1024 SPF)
Метод сжатия : С потерями
Размер потока : 107 Мбайт (4%)
Язык : Russian
Default : Да
Alternate group : 1
Дата кодирования : UTC 2020-05-21 07:39:09
Дата пометки : UTC 2020-05-21 07:41:04
tagc : public.main-program-content


Name: Гроза
Artist: Grigory Konstantinopolsky
Media Kind: 1080p
HD Video: Movie
Genre: драма
Release Date: 2019-06-15T12:00:00Z
Long Description: Действие фильма разворачивается в наши дни в маленьком волжском городе Калинове, где со времен классика Александра Островского ничего не поменялось — если лучи света и появляются в темном царстве, то обречены тихо угаснуть в общей глупости и невежестве либо ярко сверкнуть в знак протеста против лжи и самодурства. Молодая замужняя девушка Катерина Кабанова живет, на первый взгляд, счастливой жизнью. Разве что ее свекровь Кабаниха постоянно придирается и не дает вздохнуть спокойно. А слабовольный муж Тихон, хоть и любит жену, но все время принимает сторону властной матери. Когда Катерина неожиданно для себя влюбляется в родственника мэра города, молодого человека по имени Борис, то обнаруживает, что он тоже испытывает к ней самые нежные чувства…
Studio: Look-Film
Cast: Lyubov Aksyonova, Viktoriya Tolstoganova, Ivan Makarevich, Mariya Shalaeva, Alisa Khazanova, Aleksey Makarov, Aleksandr Kuznetsov, Sergey Gorodnichy, Vasiliy Butkevich, Nikita Elenev, Anastasiya Venkova, Darya Kashirina, Andrey Garkunov, Dmitry Konduktorov, Denis Molodkin
Director: Grigory Konstantinopolsky
Producers: Valery Fedorovich, Evgeniy Nikishov, Aleksandr Plotnikov
Executive Producer: Vladislava Fetisova
Screenwriters: Grigory Konstantinopolsky, Aleksandr Ostrovsky
Composer: Ivan Makarevich

Скриншоты:


Все одноименные релизы в Клубе
Время раздачи: 24/7 (до появления первых 3-5 скачавших)

Релиз подготовлен для просмотра на Apple TV, iPad, iPhone, iPod Touch.
Для просмотра данного релиза на компьютере с ОС Windows рекомендуется использовать VLC media player
Groza.2019.WEB-DL.1080p.NNMClub.m4v.torrent
 Торрент: Платиновая раздача  Зарегистрирован
 
Скачать


Примагнититься
 Зарегистрирован:   21 Май 2020 10:46:52
 Размер:   2,59 GB  (
 Рейтинг:    (Голосов: 5)
 Поблагодарили:   32
 Проверка:   Оформление проверено модератором 21 Май 2020 13:03:39
Как cкачать  ·  Как раздать  ·  Правильно оформить  ·  Поднять ратио!  

_________________
«Всё против нас, только ветер навстречу…».
🍏Apple iMac 21.5 (mid 2011) / Intel Core i5 2.7 GHz / AMD Radeon HD 6770M 512 Mb / 12GB DDR3 / Apple Trackpad, Apple Keyboard / macOS High Sierra 10.13.6 (17G12034)
S111
Стаж: 10 лет 6 мес.
Сообщений: 2
Ratio: 30,517
0%
3.14 здесь(((
александра3533
Стаж: 4 года 3 мес.
Сообщений: 123
Ratio: 39,05
100%
своеобразно конечно. двоякие впечатления. загубили девку.
Показать сообщения:   
Начать новую тему   Ответить на тему    Торрент-трекер NNM-Club -> Аудио и Видео -> Отечественное видео HD для устройств Apple Часовой пояс: GMT + 3
Страница 1 из 1