Классический форум-трекер
canvas not supported
Нас вместе: 4 114 446

Ловец снов / Dreamkatcher (2020) WEB-DL [1080p] ATV [AVO]


 
 
RSS
Начать новую тему   Ответить на тему    Торрент-трекер NNM-Club -> Аудио и Видео -> Зарубежное видео HD для устройств Apple
Автор Сообщение
Весельчак У ®
Модератор Apple
Uploader 100+
Стаж: 6 лет 5 мес.
Сообщений: 6111
Ratio: 160,842
Поблагодарили: 197633
93%
Откуда: От Москвы недалеко...
ussr.gif
Ловец снов / Dreamkatcher (2020) WEB-DL [1080p] ATV«Let the Nightmare Begin»
Производство: США / Taylor Lane Productions
Жанр: Ужасы

Режиссер: Керри Харрис
Продюсер: Керри Харрис, Энни Стюарт, Ориан Уильямс
Актеры: Рада Митчелл, Генри Томас, Лин Шэй, Жуль Уиллкокс, Джозеф Бишара, Финлэй Войтаг-Хиссонг, Дункан Фостер-Аллен, Дж. Кристиан Ингвордсен, Белла Мари Фучиле, Каллен Риера

Описание:
Совсем немного времени прошло после убийства жены Люка соседским мальчишкой в отдалённом лесном домике, но мужчина привозит туда свою новую пассию Гейл и сына Джоша. Ребёнка мучают страшные сны, в которых ему является мёртвая мама, а Гейл — детский психилог со стажем — изо всех сил пытается помочь мальчику. Однажды, наслушавшись рассказов соседки про ловцы снов, Джош крадёт у неё из сундука полезную, как он думал, для избавления от кошмаров вещь, но после этого его сны становятся ещё более реалистичными и пугающими.


Возраст: 16+ (зрителям, достигшим 16 лет)
Рейтинг MPAA: R (лицам до 17 лет обязательно присутствие взрослого)
Дата мировой премьеры: 27 апреля 2020
Дата российской премьеры: 16 июля 2020, «Exponenta Horror»

Релиз от: NNMClub

Продолжительность: 01:25:17
Качество видео: WEB-DL 1080р
Перевод: Авторский одноголосый (Андрей Дольский)
Субтитры: Русские (full, SDH), английские (SDH)

Видео: H.264, 1920x1080 (16:9), ~7866 kbps, 23.976 fps
Аудио#1: AAC, 2.0 ch, 265 Kbps - Русский AVO, А. Дольский
Аудио#2: AAC, 2.0 ch, 265 Kbps - English Original
Аудио#3: AC3, 6.0 ch, 448 Kbps - Русский AVO, А. Дольский
Аудио#4: AC3, 6.0 ch, 640 Kbps - English Original

Общее
Полное имя : /Volumes/HDD/Movies/NNMClub/Dreamkatcher.2020.WEB-DL.1080p.NNMClub.m4v
Формат : MPEG-4
Идентификатор кодека : M4V (M4V /M4A /mp42/isom)
Размер файла : 5,66 Гбайт
Продолжительность : 1 ч. 25 м.
Режим общего битрейта : Переменный
Общий поток : 9 493 Кбит/сек
Название фильма : Ловец снов
Исполнитель : Kerry Harris
Композитор : Joseph Bishara
Режиссёр : Kerry Harris
Исполнитель : Radha Mitchell / Henry Thomas / Lin Shaye / Finlay Wojtak-Hissong / Jules Willcox / Joseph Bishara
Сценарист : Kerry Harris / Dan V. Shea
Продюсер : Annie Stewart / Orian Williams / Christian Taylor / Kerry Harris
Исполнительный продюсер : Lin Shaye, Radha Mitchell, Barry Brooker, Stan Wertlieb, Clay Epstein, Gina Rugolo
Студия-производитель : Taylor Lane Productions
Жанр : ужасы, триллер
Тип содержимого : Short Film
Дата записи : UTC 2020-04-28 12:00:00
Дата кодирования : UTC 2020-05-22 09:45:06
Дата пометки : UTC 2020-05-22 09:48:32
Обложка : Yes
LongDescription : Чтобы прекратить ночные кошмары, мальчик решает украсть ловец снов у своего странного соседа. Но вместе с безделушкой в доме его семьи оказывается пугающая и опасная потусторонняя сущность.
ContentRating : mpaa|R|400|

Видео
Идентификатор : 1
Формат : AVC
Формат/Информация : Advanced Video Codec
Профиль формата : High@L4
Настройки формата : CABAC / 4 Ref Frames
Параметр CABAC формата : Да
Параметр ReFrames формата : 4 кадра
Идентификатор кодека : avc1
Идентификатор кодека/Информация : Advanced Video Coding
Продолжительность : 1 ч. 25 м.
Вид битрейта : Постоянный
Битрейт : 7 866 Кбит/сек
Номинальный битрейт : 10 000 Кбит/сек
Ширина : 1 920 пикселей
Высота : 1 080 пикселей
Соотношение сторон : 16:9
Режим частоты кадров : Переменный
Частота кадров : 23,976 (24000/1001) кадра/сек
Минимальная частота кадров : 23,810 кадра/сек
Максимальная частота кадров : 24,390 кадра/сек
Цветовое пространство : YUV
Субдискретизация насыщенности : 4:2:0
Битовая глубина : 8 бит
Тип развёртки : Прогрессивная
Бит/(Пиксели*Кадры) : 0.158
Размер потока : 4,69 Гбайт (83%)
Язык : English
Дата кодирования : UTC 2020-05-22 09:45:06
Дата пометки : UTC 2020-05-22 09:48:31
Цветовой диапазон : Limited
Основные цвета : BT.709
Характеристики трансфера : BT.709
Коэффициенты матрицы : BT.709
Codec configuration box : avcC

Аудио #1
Идентификатор : 2
Формат : AAC LC
Формат/Информация : Advanced Audio Codec Low Complexity
Идентификатор кодека : mp4a-40-2
Продолжительность : 1 ч. 25 м.
Вид битрейта : Переменный
Битрейт : 265 Кбит/сек
Максимальный битрейт : 500 Кбит/сек
Каналы : 2 канала
Channel layout : L R
Частота : 48,0 КГц
Частота кадров : 46,875 кадров/сек (1024 SPF)
Метод сжатия : С потерями
Размер потока : 161 Мбайт (3%)
Язык : Russian
Default : Да
Alternate group : 1
Дата кодирования : UTC 2020-05-22 09:45:06
Дата пометки : UTC 2020-05-22 09:48:31
Fallback From : 4
tagc : public.main-program-content

Аудио #2
Идентификатор : 3
Формат : AAC LC
Формат/Информация : Advanced Audio Codec Low Complexity
Идентификатор кодека : mp4a-40-2
Продолжительность : 1 ч. 25 м.
Вид битрейта : Переменный
Битрейт : 265 Кбит/сек
Максимальный битрейт : 499 Кбит/сек
Каналы : 2 канала
Channel layout : L R
Частота : 48,0 КГц
Частота кадров : 46,875 кадров/сек (1024 SPF)
Метод сжатия : С потерями
Размер потока : 162 Мбайт (3%)
Язык : English
Default : Нет
Alternate group : 1
Дата кодирования : UTC 2020-05-22 09:45:06
Дата пометки : UTC 2020-05-22 09:48:31
Fallback From : 5
tagc : public.main-program-content

Аудио #3
Идентификатор : 4
Формат : AC-3
Формат/Информация : Audio Coding 3
Коммерческое название : Dolby Digital
Идентификатор кодека : ac-3
Продолжительность : 1 ч. 25 м.
Вид битрейта : Постоянный
Битрейт : 448 Кбит/сек
Каналы : 6 каналов
Channel layout : L R C LFE Ls Rs
Частота : 48,0 КГц
Частота кадров : 31,250 кадров/сек (1536 SPF)
Метод сжатия : С потерями
Размер потока : 273 Мбайт (5%)
Язык : Russian
Service kind : Complete Main
Default : Inherited From: 2
Alternate group : 1
Дата кодирования : UTC 2020-05-22 09:45:06
Дата пометки : UTC 2020-05-22 09:48:31
Fallback To : 2
tagc : public.main-program-content

Аудио #4
Идентификатор : 5
Формат : AC-3
Формат/Информация : Audio Coding 3
Коммерческое название : Dolby Digital
Идентификатор кодека : ac-3
Продолжительность : 1 ч. 25 м.
Вид битрейта : Постоянный
Битрейт : 640 Кбит/сек
Каналы : 6 каналов
Channel layout : L R C LFE Ls Rs
Частота : 48,0 КГц
Частота кадров : 31,250 кадров/сек (1536 SPF)
Метод сжатия : С потерями
Размер потока : 390 Мбайт (7%)
Язык : English
Service kind : Complete Main
Default : Нет
Alternate group : 1
Дата кодирования : UTC 2020-05-22 09:45:06
Дата пометки : UTC 2020-05-22 09:48:31
Fallback To : 3
tagc : public.main-program-content

Текст #1
Идентификатор : 6
Формат : Timed Text
Режим смешивания : sbtl
Идентификатор кодека : tx3g
Продолжительность : 1 ч. 19 м.
Вид битрейта : Переменный
Битрейт : 75 бит/сек
Размер потока : 44,0 Кбайт (0%)
Язык : Russian
Default : Да
Forced : Нет
Alternate group : 2
Дата кодирования : UTC 2020-05-22 09:45:06
Дата пометки : UTC 2020-05-22 09:48:31
tagc : public.main-program-content

Текст #2
Идентификатор : 7
Формат : Timed Text
Режим смешивания : sbtl
Идентификатор кодека : tx3g
Продолжительность : 1 ч. 19 м.
Вид битрейта : Переменный
Битрейт : 86 бит/сек
Размер потока : 50,6 Кбайт (0%)
Язык : Russian
Default : Нет
Forced : Нет
Alternate group : 2
Дата кодирования : UTC 2020-05-22 09:45:06
Дата пометки : UTC 2020-05-22 09:48:31
tagc : public.accessibility.transcribes-spoken-dialog

Текст #3
Идентификатор : 8
Формат : Timed Text
Режим смешивания : sbtl
Идентификатор кодека : tx3g
Продолжительность : 1 ч. 16 м.
Вид битрейта : Переменный
Битрейт : 43 бит/сек
Размер потока : 24,4 Кбайт (0%)
Язык : English
Default : Нет
Forced : Нет
Alternate group : 2
Дата кодирования : UTC 2020-05-22 09:45:06
Дата пометки : UTC 2020-05-22 09:48:31
tagc : public.main-program-content

Текст #4
Идентификатор : 9
Формат : Timed Text
Режим смешивания : sbtl
Идентификатор кодека : tx3g
Продолжительность : 1 ч. 18 м.
Вид битрейта : Переменный
Битрейт : 48 бит/сек
Размер потока : 27,4 Кбайт (0%)
Язык : English
Default : Нет
Forced : Нет
Alternate group : 2
Дата кодирования : UTC 2020-05-22 09:45:06
Дата пометки : UTC 2020-05-22 09:48:31
tagc : public.accessibility.transcribes-spoken-dialog


Name: Ловец снов
Artist: Kerry Harris
Media Kind: Movie
HD Video: 1080p
Genre: ужасы, триллер
Release Date: 2020-04-28T12:00:00Z
Long Description: Чтобы прекратить ночные кошмары, мальчик решает украсть ловец снов у своего странного соседа. Но вместе с безделушкой в доме его семьи оказывается пугающая и опасная потусторонняя сущность.
Rating: mpaa|R|400|
Studio: Taylor Lane Productions
Cast: Radha Mitchell, Henry Thomas, Lin Shaye, Finlay Wojtak-Hissong, Jules Willcox, Joseph Bishara
Director: Kerry Harris
Producers: Annie Stewart, Orian Williams, Christian Taylor, Kerry Harris
Executive Producer: Lin Shaye, Radha Mitchell, Barry Brooker, Stan Wertlieb, Clay Epstein, Gina Rugolo
Screenwriters: Kerry Harris, Dan V. Shea
Composer: Joseph Bishara

Скриншоты:


Все одноименные релизы в Клубе
Время раздачи: 24/7 (до появления первых 3-5 скачавших)

Релиз подготовлен для просмотра на Apple TV, iPad, iPhone, iPod Touch.
Для просмотра данного релиза на компьютере с ОС Windows рекомендуется использовать VLC media player
Dreamkatcher.2020.WEB-DL.1080p.NNMClub.m4v.torrent
 Торрент: Платиновая раздача  Зарегистрирован
 
Скачать


Примагнититься
 Зарегистрирован:   22 Май 2020 12:53:47
 Размер:   5,66 GB  (
 Рейтинг:   3,2 (Голосов: 10)
 Поблагодарили:   71
 Проверка:   Оформление проверено модератором 22 Май 2020 14:00:34
Как cкачать  ·  Как раздать  ·  Правильно оформить  ·  Поднять ратио!  

_________________
«Всё против нас, только ветер навстречу…».
🍏Apple iMac 21.5 (mid 2011) / Intel Core i5 2.7 GHz / AMD Radeon HD 6770M 512 Mb / 12GB DDR3 / Apple Trackpad, Apple Keyboard / macOS High Sierra 10.13.6 (17G13033)
pornoboss
Стаж: 10 лет 2 мес.
Сообщений: 139
Ratio: 1,984
3.2%
это нужно было деньги на такую вату потратить ((((
спасибо, конечно, за релиз.
Но не нужно, имхо, конкретный мусор по трекеру разбрасывать
Весельчак У ®
Модератор Apple
Uploader 100+
Стаж: 6 лет 5 мес.
Сообщений: 6111
Ratio: 160,842
Поблагодарили: 197633
93%
Откуда: От Москвы недалеко...
ussr.gif
pornoboss писал(а): Перейти к сообщению
Но не нужно, имхо, конкретный мусор по трекеру разбрасывать

Это уже не вам решать

_________________
«Всё против нас, только ветер навстречу…».
🍏Apple iMac 21.5 (mid 2011) / Intel Core i5 2.7 GHz / AMD Radeon HD 6770M 512 Mb / 12GB DDR3 / Apple Trackpad, Apple Keyboard / macOS High Sierra 10.13.6 (17G13033)
sersel

Online
Стаж: 1 год 5 мес.
Сообщений: 13
Ratio: 0,619
3.41%
Этот фильм имеет отношение к фильму Ловец снов 2003 года?
alexey3312
Стаж: 9 лет 5 мес.
Сообщений: 747
Ratio: 11,287
Раздал: 11,22 TB
100%
ussr.gif
sersel писал(а): Перейти к сообщению
Этот фильм имеет отношение к фильму Ловец снов 2003 года?

Тот по Кингу, этот по [товарищ]......

_________________
Металлисты - это самый развитой и передовой класс, и никто не может отрицать, что это и есть передовой отряд всего пролетариата. В.И. Ленин
Lingi
Стаж: 8 лет 4 мес.
Сообщений: 2325
Ratio: 25,826
100%
Сюжет высосан из пальца, неужели Митчелл лучше проекты не предлагают?
Скоротать вечер можно, но ужастик проходной.
6/10
Показать сообщения:   
Начать новую тему   Ответить на тему    Торрент-трекер NNM-Club -> Аудио и Видео -> Зарубежное видео HD для устройств Apple Часовой пояс: GMT + 3
Страница 1 из 1