Классический форум-трекер
canvas not supported
Нас вместе: 4 125 884

Менялы (1992) WEB-DLRip [1080р] ATV


 
 
RSS
Начать новую тему   Ответить на тему    Торрент-трекер NNM-Club -> Аудио и Видео -> Отечественное видео HD для устройств Apple
Автор Сообщение
Весельчак У ®
Модератор Apple
Uploader 100+
Стаж: 6 лет 9 мес.
Сообщений: 7049
Ratio: 171,841
Поблагодарили: 225590
89.29%
Откуда: От Москвы недалеко...
ussr.gif
Менялы (1992) WEB-DLRip [1080р] ATV
Производство: Россия, США / 12А, TWELVE L.A. Inc., СЛАВУТИЧ
Жанр: Комедия

Режиссер: Георгий Шенгелия
Продюсер: Светлана Ануфриева, Кирилл Ануфриев, Леонард Лев
Актеры: Владимир Ильин, Андрей Пономарев, Вадим Захарченко, Юрий Горин, Валентина Теличкина, Оксана Мысина, Ренат Давлетьяров, Наиль Идрисов, Олег Дурыгин, Алла Мещерякова

Описание:
Остроумная, остросюжетная комедия рассказывает об «авантюре времен денежной реформы» 1961 года, когда «весь многомиллионный советский народ» запустил в космос Гагарина, а иностранцы, «не раздумывая, меняли один американский доллар на 65 советских копеек». «Всего лишь 20 лет отделяли тогда наш народ от светлой эры всего человечества», а два человека тем временем, по заданию подпольного миллионера, сомневающегося в отмене денег при коммунизме, занимались тем, что меняли деньги на медные монеты. Почему? Попробуйте догадаться сами, а не догадаетесь - посмотрите.



Возраст: 12+ (зрителям, достигшим 12 лет)

Релиз от: NNMClub

Продолжительность: 01:28:25
Качество видео: WEB-DLRip 1080р
Перевод:Не требуется (русский)
Субтитры: Отсутствуют

Видео: H.264, 1920x1080 (16:9), ~4800 kbps, 25.000 fps
Аудио: AAC, 2.0 ch, 192 Kbps - Русский

Общее
Полное имя : /Volumes/HDD/Movies/NNMClub/Менялы.1992.WEB-DL.1080p.NNMClub.m4v
Формат : MPEG-4
Идентификатор кодека : M4V (M4V /M4A /mp42/isom)
Размер файла : 3,04 Гбайт
Продолжительность : 1 ч. 28 м.
Режим общего битрейта : Переменный
Общий поток : 4 938 Кбит/сек
Название фильма : Менялы
Исполнитель : Georgiy Shengeliya
Композитор : George Movsesyan
Режиссёр : Georgiy Shengeliya
Исполнитель : Vladimir Ilin / Andrei Ponomaryov / Vadim Zakharchenko / Yuri Gorin / Valentina Telichkina / Oksana Mysina / Renat Davletyarov / Nail Idrisov / Oleg Durygin / Alla Meshcheryakova / Konstantin Labutin / Lyudmila Larionova / Lyusyena Ovchinnikova
Сценарист : Aleksei Timm
Студия-производитель : Kinostudiya 12
Жанр : криминал, комедия
Тип содержимого : Short Film
Дата записи : UTC 1992-10-15 12:00:00
Дата кодирования : UTC 2020-09-15 13:41:29
Дата пометки : UTC 2020-09-15 13:44:26
Обложка : Yes
LongDescription : Остроумная, остросюжетная комедия рассказывает об «авантюре времен денежной реформы» 1961 года, когда «весь многомиллионный советский народ» запустил в космос Гагарина, а иностранцы, «не раздумывая, меняли один американский доллар на 65 советских копеек». «Всего лишь 20 лет отделяли тогда наш народ от светлой эры всего человечества», а два человека тем временем, по заданию подпольного миллионера, сомневающегося в отмене денег при коммунизме, занимались тем, что меняли деньги на медные монеты. Почему? Попробуйте догадаться сами, а не догадаетесь — посмотрите.

Видео
Идентификатор : 1
Формат : AVC
Формат/Информация : Advanced Video Codec
Профиль формата : High@L4.1
Настройки формата : CABAC / 4 Ref Frames
Параметр CABAC формата : Да
Параметр RefFrames формата : 4 кадра
Идентификатор кодека : avc1
Идентификатор кодека/Информация : Advanced Video Coding
Продолжительность : 1 ч. 28 м.
Вид битрейта : Постоянный
Битрейт : 4 800 Кбит/сек
Ширина : 1 920 пикселей
Высота : 1 080 пикселей
Соотношение сторон : 16:9
Режим частоты кадров : Постоянный
Частота кадров : 25,000 кадров/сек
Цветовое пространство : YUV
Субдискретизация насыщенности : 4:2:0
Битовая глубина : 8 бит
Тип развёртки : Прогрессивная
Бит/(Пиксели*Кадры) : 0.093
Размер потока : 2,92 Гбайт (96%)
Библиотека кодирования : x264 core 148
Настройки программы : cabac=1 / ref=2 / deblock=1:0:0 / analyse=0x3:0x113 / me=hex / subme=6 / psy=1 / psy_rd=1.00:0.00 / mixed_ref=1 / me_range=16 / chroma_me=1 / trellis=1 / 8x8dct=1 / cqm=0 / deadzone=21,11 / fast_pskip=1 / chroma_qp_offset=-2 / threads=1 / lookahead_threads=1 / sliced_threads=0 / nr=0 / decimate=1 / interlaced=0 / bluray_compat=0 / constrained_intra=0 / bframes=3 / b_pyramid=2 / b_adapt=1 / b_bias=0 / direct=1 / weightb=1 / open_gop=0 / weightp=1 / keyint=250 / keyint_min=25 / scenecut=0 / intra_refresh=0 / rc_lookahead=30 / rc=cbr / mbtree=1 / bitrate=4800 / ratetol=1.0 / qcomp=0.60 / qpmin=0 / qpmax=69 / qpstep=4 / vbv_maxrate=4800 / vbv_bufsize=2400 / nal_hrd=cbr / filler=1 / ip_ratio=1.40 / aq=1:1.00
Язык : English
Дата кодирования : UTC 2020-09-15 13:41:29
Дата пометки : UTC 2020-09-15 13:44:25
Codec configuration box : avcC

Аудио
Идентификатор : 2
Формат : AAC LC
Формат/Информация : Advanced Audio Codec Low Complexity
Идентификатор кодека : mp4a-40-2
Продолжительность : 1 ч. 28 м.
Вид битрейта : Переменный
Битрейт : 192 Кбит/сек
Максимальный битрейт : 215 Кбит/сек
Каналы : 2 канала
Channel layout : L R
Частота : 48,0 КГц
Частота кадров : 46,875 кадров/сек (1024 SPF)
Метод сжатия : С потерями
Размер потока : 119 Мбайт (4%)
Язык : Russian
Default : Да
Alternate group : 1
Дата кодирования : UTC 2020-09-15 13:41:29
Дата пометки : UTC 2020-09-15 13:44:25
tagc : public.main-program-content


Name: Менялы
Artist: Georgiy Shengeliya
Media Kind: Movie
HD Video: 1080р
Genre: криминал, комедия
Release Date: 1992-10-15T12:00:00Z
Long Description: Остроумная, остросюжетная комедия рассказывает об «авантюре времен денежной реформы» 1961 года, когда «весь многомиллионный советский народ» запустил в космос Гагарина, а иностранцы, «не раздумывая, меняли один американский доллар на 65 советских копеек». «Всего лишь 20 лет отделяли тогда наш народ от светлой эры всего человечества», а два человека тем временем, по заданию подпольного миллионера, сомневающегося в отмене денег при коммунизме, занимались тем, что меняли деньги на медные монеты. Почему? Попробуйте догадаться сами, а не догадаетесь — посмотрите.
Studio: Kinostudiya 12
Cast: Vladimir Ilin, Andrei Ponomaryov, Vadim Zakharchenko, Yuri Gorin, Valentina Telichkina, Oksana Mysina, Renat Davletyarov, Nail Idrisov, Oleg Durygin, Alla Meshcheryakova, Konstantin Labutin, Lyudmila Larionova, Lyusyena Ovchinnikova
Director: Georgiy Shengeliya
Screenwriters: Aleksei Timm
Composer: George Movsesyan

Скриншоты:


Все одноименные релизы в Клубе
Время раздачи: 24/7 (до появления первых 3-5 скачавших)

Релиз подготовлен для просмотра на Apple TV, iPad, iPhone, iPod Touch.
Для просмотра данного релиза на компьютере с ОС Windows рекомендуется использовать VLC media player
Menyalyi.1992.WEB-DL.1080p.NNMClub.m4v.torrent
 Торрент:   Зарегистрирован
 
Зарегистрируйтесь и скачайте торрент!
30,6 KB

Примагнититься
 Зарегистрирован:   15 Сен 2020 17:20:57
 Размер:   3,04 GB  (
 Рейтинг:   4,8 (Голосов: 14)
 Поблагодарили:   66
 Проверка:   Оформление проверено модератором 17 Сен 2020 05:22:32
Как cкачать  ·  Как раздать  ·  Правильно оформить  ·  Поднять ратио!  

_________________
«Всё против нас, только ветер навстречу…».
🍏Apple iMac 21.5 (mid 2011) / Intel Core i5 2.7 GHz / AMD Radeon HD 6770M 512 Mb / 12GB DDR3 / Apple Trackpad, Apple Keyboard / macOS High Sierra 10.13.6 (17G13033)
Titan25
Стаж: 13 лет
Сообщений: 367
Ratio: 1,555
5.24%
russia.gif
Ностальгия по хорошему доброму времени , только вот смешно смотреть как они медь считают , каждый кассир знал , что 1 копейка весит 1 грамм , сыпь на весы медь сколько грамм столько и копеек. Каждые 30 лет в нашем государстве проходит деноминация рубля это так для размышлений , есть статистика.
westjack
Стаж: 6 лет
Сообщений: 673
Ratio: 4,674
Поблагодарили: 133
1.3%
Titan25 писал(а): Перейти к сообщению
Ностальгия по хорошему доброму времени , только вот смешно смотреть как они медь считают , каждый кассир знал , что 1 копейка весит 1 грамм , сыпь на весы медь сколько грамм столько и копеек. Каждые 30 лет в нашем государстве проходит деноминация рубля это так для размышлений , есть статистика.


Смешно смотреть, как такие не только рассуждают, но еще свою глупость напоказ выставляют.

Копейка весила ПРИМЕРНО 1 грамм, что по стандартам монетного двора плюс-минус 5-20 процентов (в зависимости от партии, т.е. пресса, сплава и пр.) в любую сторону.

Сто копеек никогда не могло весить 100 грамм. Вы действительно думали, на полном серьезе, что кассиры в СССР мелочь взвешивали?

Чтобы понять, насколько такая разница в стоимости посчитанных и взвешенных монет существенна, посмотрите цены на товары в 1961 году.

Что вы там наразмышляли насчет деноминаций и обмена, я даже подумать боюсь. Наверно какой-нибудь очередной страшный заговор жидомассонов против русского народа.
Показать сообщения:   
Начать новую тему   Ответить на тему    Торрент-трекер NNM-Club -> Аудио и Видео -> Отечественное видео HD для устройств Apple Часовой пояс: GMT + 3
Страница 1 из 1