Классический форум-трекер
canvas not supported
Нас вместе: 4 126 914

Дьявол всегда здесь / The Devil All the Time (2020) WEB-DLRip [1080p] ATV [MVO]


 
 
RSS
Начать новую тему   Ответить на тему    Торрент-трекер NNM-Club -> Аудио и Видео -> Зарубежное видео HD для устройств Apple
Автор Сообщение
Весельчак У ®
Модератор Apple
Uploader 100+
Стаж: 6 лет 9 мес.
Сообщений: 7159
Ratio: 172,738
Поблагодарили: 228595
89.6%
Откуда: От Москвы недалеко...
ussr.gif
Дьявол всегда здесь / The Devil All the Time (2020) WEB-DLRip [1080p] ATV«Some people are just born to be buried»
Производство: США / Nine Stories Productions
Жанр: Триллер, драма, криминал

Режиссер: Антонио Кампос
Продюсер: Макс Борн, Джейк Джилленхол, Джаред Голдман
Актеры: Том Холланд, Роберт Паттинсон, Билл Скарсгард, Хейли Беннетт, Райли Кио, Гарри Меллинг, Себастиан Стэн, Миа Васиковска, Элайза Сканлен, Джейсон Кларк

Описание:
Город Нокерстифф, штат Огайо. Безутешный Уиллард Рассел готов на всё, лишь бы спасти умирающую жену. Он начинает молить небеса о спасении, забыв об остальном мире, в результате чего его сын Элвин вынужден превратиться из забитого школьника в решительного мужчину, способного взять дело в свои руки.



Рейтинг MPAA: R (лицам до 17 лет обязательно присутствие взрослого)
Дата мировой премьеры: 16 сентября 2020

Релиз от: NNMClub

Продолжительность: 02:18:52
Качество видео: WEB-DLRip 1080р
Перевод: Любительский двухголосый, профессиональный многоголосый
Субтитры: Русские, английские (вшитые, отключаемые)
Присутствует ненормативная лексика в необходимом и достаточном количестве!

Видео: H.264, 1920x1080 (16:9), ~7500 kbps, 24.000 fps
Аудио#1: AAC, 2.0 ch, 161 Kbps - Русский DVO, OnisFilms
Аудио#2: AAC, 2.0 ch, 192 Kbps - Русский MVO, NewComers (без цензуры)
Аудио#3: AAC, 2.0 ch, 192 Kbps - English Original
Аудио#4: AC3, 6.0 ch, 448 Kbps - Русский MVO, NewComers (без цензуры)
Аудио#5: AC3, 6.0 ch, 512 Kbps - English Original

Общее
Полное имя : /Volumes/HDD/Movies/NNMClub/The.Devil.All.the.Time.2020.WEB-DL.1080p.NNMClub.m4v
Формат : MPEG-4
Идентификатор кодека : M4V (M4V /M4A /mp42/isom)
Размер файла : 8,67 Гбайт
Продолжительность : 2 ч. 18 м.
Режим общего битрейта : Переменный
Общий поток : 8 939 Кбит/сек
Название фильма : Дьявол всегда здесь
Исполнитель : Antonio Campos
Композитор : Saunder Jurriaans, Danny Bensi
Режиссёр : Antonio Campos
Исполнитель : Tom Holland / Bill Skarsgård / Riley Keough / Jason Clarke / Sebastian Stan / Haley Bennett / Harry Melling / Eliza Scanlen / Mia Wasikowska / Robert Pattinson / Douglas Hodge / Kristin Griffith / Pokey LaFarge / Donald Ray Pollock / Michael Banks Repeta / Emilio Subercaseaux Campos / David Atkinson / Matthew Vaughn / Billy Joe Bradshaw / Gregory Kelly / David Maldonado / Mark Jeffrey Miller / Ryan Anthony Williams / Wes Robinson / Todd Barnett / Michael Harding / Lucy Faust / Abby Glover / Kelly Lind / Cotton Yancey / Adam Fristoe / Morganna Bridgers / Karson Kern / Ivan Hoey Jr. / Zack Shires / Drew Starkey / Caleb J. Thaggard / Ever Eloise Landrum / Given Sharp / Cory Scott Allen / Emma Coulter / Cody Jones / Madelyn Wall / Jason Collett / Eric Mendenhall / Teddy Cole / Michael H. Cole / Andrew Young / Cort Chandler / Bruce Cooper / Daniel James Vaughn / Edward Hall / Jeff McCarthy / Santino Fontana / John Pue / Phillip DeVona / Kevin Waterman / Sarah Hamff / Shannon Frye / James H. Keating / Scott Rapp / Lawrence Hinkle / Kyle Sawyer / Emily Towles / Meagan Bown / Ben Bailey / Beth Scott / Kacey Hayes / Myles Phillips / Rebecca Douglas / Leslie Sides / Katie Flaherty / Matt Powell / Morgan Monroe / Jeff McKinney / Jason Charles Hill
Сценарист : Antonio Campos / Donald Ray Pollock / Paulo Campos
Продюсер : Jake Gyllenhaal / Randall Poster / Riva Marker / Max Born
Исполнительный продюсер : Jared Ian Goldman, Annie Marter, Marc A. Hammer
Студия-производитель : Nine Stories Productions, BorderLine Films, Bronx Moving Co.
Жанр : криминал, драма, триллер
Тип содержимого : Short Film
Дата записи : UTC 2020-09-11 12:00:00
Дата кодирования : UTC 2020-09-18 20:07:20
Дата пометки : UTC 2020-09-18 20:13:01
Обложка : Yes
LongDescription : Город Нокерстифф, штат Огайо. Безутешный Уиллард Рассел готов на всё, лишь бы спасти умирающую жену. Он начинает молить небеса о спасении, забыв об остальном мире, в результате чего его сын Элвин вынужден превратиться из забитого школьника в решительного мужчину, способного взять дело в свои руки.
ContentRating : mpaa|R|400|

Видео
Идентификатор : 1
Формат : AVC
Формат/Информация : Advanced Video Codec
Профиль формата : Main@L4
Настройки формата : CABAC / 3 Ref Frames
Параметр CABAC формата : Да
Параметр RefFrames формата : 3 кадра
Идентификатор кодека : avc1
Идентификатор кодека/Информация : Advanced Video Coding
Продолжительность : 2 ч. 18 м.
Вид битрейта : Переменный
Битрейт : 7 500 Кбит/сек
Максимальный битрейт : 11,2 Мбит/сек
Ширина : 1 920 пикселей
Высота : 1 080 пикселей
Соотношение сторон : 16:9
Режим частоты кадров : Переменный
Частота кадров : 24,000 кадра/сек
Минимальная частота кадров : 23,810 кадра/сек
Максимальная частота кадров : 24,390 кадра/сек
Цветовое пространство : YUV
Субдискретизация насыщенности : 4:2:0
Битовая глубина : 8 бит
Тип развёртки : Прогрессивная
Бит/(Пиксели*Кадры) : 0.151
Размер потока : 7,20 Гбайт (83%)
Библиотека кодирования : x264 core 148 r2722 1b0121b
Настройки программы : cabac=1 / ref=3 / deblock=1:0:0 / analyse=0x1:0x111 / me=umh / subme=10 / psy=1 / psy_rd=1.00:0.00 / mixed_ref=1 / me_range=24 / chroma_me=1 / trellis=2 / 8x8dct=0 / cqm=0 / deadzone=21,11 / fast_pskip=1 / chroma_qp_offset=-2 / threads=6 / lookahead_threads=1 / sliced_threads=0 / nr=0 / decimate=1 / interlaced=0 / bluray_compat=0 / stitchable=1 / constrained_intra=0 / bframes=2 / b_pyramid=0 / b_adapt=2 / b_bias=0 / direct=3 / weightb=1 / open_gop=0 / weightp=2 / keyint=250 / keyint_min=24 / scenecut=0 / intra_refresh=0 / rc_lookahead=48 / rc=2pass / mbtree=1 / bitrate=7500 / ratetol=1.0 / qcomp=0.50 / qpmin=6 / qpmax=51 / qpstep=4 / cplxblur=20.0 / qblur=0.5 / vbv_maxrate=11250 / vbv_bufsize=15000 / nal_hrd=vbr / filler=0 / ip_ratio=1.40 / aq=1:1.00
Язык : English
Дата кодирования : UTC 2020-09-18 20:07:20
Дата пометки : UTC 2020-09-18 20:13:00
Codec configuration box : avcC

Аудио #1
Идентификатор : 2
Формат : AAC LC
Формат/Информация : Advanced Audio Codec Low Complexity
Идентификатор кодека : mp4a-40-2
Продолжительность : 2 ч. 18 м.
Вид битрейта : Переменный
Битрейт : 161 Кбит/сек
Максимальный битрейт : 254 Кбит/сек
Каналы : 2 канала
Channel layout : L R
Частота : 48,0 КГц
Частота кадров : 46,875 кадров/сек (1024 SPF)
Метод сжатия : С потерями
Размер потока : 159 Мбайт (2%)
Язык : Russian
Default : Да
Alternate group : 1
Дата кодирования : UTC 2020-09-18 20:07:20
Дата пометки : UTC 2020-09-18 20:13:00
tagc : public.main-program-content

Аудио #2
Идентификатор : 3
Формат : AAC LC
Формат/Информация : Advanced Audio Codec Low Complexity
Идентификатор кодека : mp4a-40-2
Продолжительность : 2 ч. 18 м.
Продолжительность оригинала : 2 ч. 18 м.
Вид битрейта : Переменный
Битрейт : 192 Кбит/сек
Максимальный битрейт : 323 Кбит/сек
Каналы : 2 канала
Channel layout : L R
Частота : 48,0 КГц
Частота кадров : 46,875 кадров/сек (1024 SPF)
Метод сжатия : С потерями
Размер потока : 190 Мбайт (2%)
Размер потока оригинала : 190 Мбайт (2%)
Язык : Russian
Default : Нет
Alternate group : 1
Дата кодирования : UTC 2020-09-18 20:07:20
Дата пометки : UTC 2020-09-18 20:09:57
Fallback From : 5
tagc : public.main-program-content

Аудио #3
Идентификатор : 4
Формат : AAC LC
Формат/Информация : Advanced Audio Codec Low Complexity
Идентификатор кодека : mp4a-40-2
Продолжительность : 2 ч. 18 м.
Продолжительность оригинала : 2 ч. 18 м.
Вид битрейта : Переменный
Битрейт : 192 Кбит/сек
Максимальный битрейт : 314 Кбит/сек
Каналы : 2 канала
Channel layout : L R
Частота : 48,0 КГц
Частота кадров : 46,875 кадров/сек (1024 SPF)
Метод сжатия : С потерями
Размер потока : 193 Мбайт (2%)
Размер потока оригинала : 193 Мбайт (2%)
Язык : English
Default : Нет
Alternate group : 1
Дата кодирования : UTC 2020-09-18 20:07:20
Дата пометки : UTC 2020-09-18 20:09:57
Fallback From : 6
tagc : public.main-program-content

Аудио #4
Идентификатор : 5
Формат : AC-3
Формат/Информация : Audio Coding 3
Коммерческое название : Dolby Digital
Идентификатор кодека : ac-3
Продолжительность : 2 ч. 18 м.
Вид битрейта : Постоянный
Битрейт : 448 Кбит/сек
Каналы : 6 каналов
Channel layout : L R C LFE Ls Rs
Частота : 48,0 КГц
Частота кадров : 31,250 кадров/сек (1536 SPF)
Метод сжатия : С потерями
Размер потока : 445 Мбайт (5%)
Язык : Russian
Service kind : Complete Main
Default : Нет
Alternate group : 1
Дата кодирования : UTC 2020-09-18 20:07:20
Дата пометки : UTC 2020-09-18 20:09:57
Fallback To : 3
tagc : public.main-program-content

Аудио #5
Идентификатор : 6
Формат : AC-3
Формат/Информация : Audio Coding 3
Коммерческое название : Dolby Digital
Идентификатор кодека : ac-3
Продолжительность : 2 ч. 18 м.
Вид битрейта : Постоянный
Битрейт : 512 Кбит/сек
Каналы : 6 каналов
Channel layout : L R C LFE Ls Rs
Частота : 48,0 КГц
Частота кадров : 31,250 кадров/сек (1536 SPF)
Метод сжатия : С потерями
Размер потока : 509 Мбайт (6%)
Язык : English
Service kind : Complete Main
Default : Нет
Alternate group : 1
Дата кодирования : UTC 2020-09-18 20:07:20
Дата пометки : UTC 2020-09-18 20:09:57
Fallback To : 4
tagc : public.main-program-content

Текст #1
Идентификатор : 7
Формат : Timed Text
Режим смешивания : sbtl
Идентификатор кодека : tx3g
Продолжительность : 2 ч. 11 м.
Вид битрейта : Переменный
Битрейт : 83 бит/сек
Размер потока : 79,8 Кбайт (0%)
Язык : Russian
Default : Да
Forced : Нет
Alternate group : 2
Дата кодирования : UTC 2020-09-18 20:07:20
Дата пометки : UTC 2020-09-18 20:13:00
tagc : public.main-program-content

Текст #2
Идентификатор : 8
Формат : Timed Text
Режим смешивания : sbtl
Идентификатор кодека : tx3g
Продолжительность : 2 ч. 16 м.
Вид битрейта : Переменный
Битрейт : 70 бит/сек
Размер потока : 69,5 Кбайт (0%)
Язык : English
Default : Нет
Forced : Нет
Alternate group : 2
Дата кодирования : UTC 2020-09-18 20:07:20
Дата пометки : UTC 2020-09-18 20:13:00
tagc : public.main-program-content


Name: Дьявол всегда здесь
Artist: Antonio Campos
Media Kind: Movie
HD Video: 1080р
Genre: криминал, драма, триллер
Release Date: 2020-09-11T12:00:00Z
Long Description: Город Нокерстифф, штат Огайо. Безутешный Уиллард Рассел готов на всё, лишь бы спасти умирающую жену. Он начинает молить небеса о спасении, забыв об остальном мире, в результате чего его сын Элвин вынужден превратиться из забитого школьника в решительного мужчину, способного взять дело в свои руки.
Rating: mpaa|R|400|
Studio: Nine Stories Productions, BorderLine Films, Bronx Moving Co.
Cast: Tom Holland, Bill Skarsgård, Riley Keough, Jason Clarke, Sebastian Stan, Haley Bennett, Harry Melling, Eliza Scanlen, Mia Wasikowska, Robert Pattinson, Douglas Hodge, Kristin Griffith, Pokey LaFarge, Donald Ray Pollock, Michael Banks Repeta, Ever Eloise Landrum, Lucy Faust, Eric Mendenhall, Cory Scott Allen, Michael Harding, Abby Glover, Emma Coulter, Mark Jeffrey Miller, David Maldonado, Jason Collett, Phillip DeVona, Morganna Bridgers, Drew Starkey, Adam Fristoe, Gregory Kelly, Michael H. Cole, Kevin Waterman, Kelly Lind, Given Sharp, Ivan Hoey Jr., Zack Shires, Sarah Hamff, Shannon Frye, Todd Barnett, James H. Keating, Scott Rapp, Daniel James Vaughn, Caleb J. Thaggard, Lawrence Hinkle, Kyle Sawyer, Karson Kern, Teddy Cole, Emily Towles, Meagan Bown, Ben Bailey, Beth Scott, Kacey Hayes, Cotton Yancey, Myles Phillips, Rebecca Douglas, Leslie Sides, Katie Flaherty, Matt Powell, Morgan Monroe, Jeff McKinney, Ryan Anthony Williams, David Atkinson, Jason Charles Hill
Director: Antonio Campos
Producers: Jake Gyllenhaal, Randall Poster, Riva Marker, Max Born
Executive Producer: Jared Ian Goldman, Annie Marter, Marc A. Hammer
Screenwriters: Antonio Campos, Donald Ray Pollock, Paulo Campos
Composer: Saunder Jurriaans, Danny Bensi

Скриншоты:


Все одноименные релизы в Клубе
Время раздачи: 24/7 (до появления первых 3-5 скачавших)

Релиз подготовлен для просмотра на Apple TV, iPad, iPhone, iPod Touch.
Для просмотра данного релиза на компьютере с ОС Windows рекомендуется использовать VLC media player
The.Devil.All.the.Time.2020.WEB-DL.1080p.NNMClub.m4v.torrent
 Торрент: Золотая раздача  Зарегистрирован
 
Зарегистрируйтесь и скачайте торрент!
87 KB

Примагнититься
 Зарегистрирован:   18 Сен 2020 23:34:47
 Размер:   8,67 GB  (
 Рейтинг:    (Голосов: 9)
 Поблагодарили:   47
 Проверка:   Оформление проверено модератором 23 Сен 2020 09:16:55
Как cкачать  ·  Как раздать  ·  Правильно оформить  ·  Поднять ратио!  

_________________
«Всё против нас, только ветер навстречу…».
🍏Apple iMac 21.5 (mid 2011) / Intel Core i5 2.7 GHz / AMD Radeon HD 6770M 512 Mb / 12GB DDR3 / Apple Trackpad, Apple Keyboard / macOS High Sierra 10.13.6 (17G13033)
sppu111
Стаж: 8 лет 8 мес.
Сообщений: 26
Ratio: 5,328
31.43%
bangladesh.gif
Лучший фильм за последнее время, однозначно к просмотру.
Thanatos_UA_
Стаж: 1 год 10 мес.
Сообщений: 327
Ratio: 14,376
Раздал: 4,641 TB
Поблагодарили: 1952
100%
ukraine.gif
За выбор озвучки огромное спасибо!

_________________
♠ Win10 LTSC • 64GB RAM + PrimoCache ♥ Слава Монолиту!
TrW9
Стаж: 3 мес.
Сообщений: 26
100%
Сюжет бестолковый, но фильм шикарнейший
Показать сообщения:   
Начать новую тему   Ответить на тему    Торрент-трекер NNM-Club -> Аудио и Видео -> Зарубежное видео HD для устройств Apple Часовой пояс: GMT + 3
Страница 1 из 1