Классический форум-трекер
canvas not supported
Нас вместе: 4 129 770

Mao Fujita - Chopin: Impromptus and Scherzos (2020) Naxos [FLAC2.0|96/24|tracks|WEB-DL] <Classical>


 
 
RSS
Начать новую тему   Ответить на тему    Торрент-трекер NNM-Club -> HD Audio и Многоканальная Музыка -> WEB-DL-Audio
Автор Сообщение
Євген_N ®
Аплоудер эксклюзива
Стаж: 11 лет
Сообщений: 1994
Ratio: 2442,107
Поблагодарили: 246210
100%
ukraine.gif
Mao Fujita - Chopin: Impromptus and Scherzos (2020)
Жанр: Classical
Издание: Naxos – 8.574052
Источник: prostudiomasters.com
Продолжительность: 01:12:55

Кодек: FLAC
Битрейт: Lossless|WEB-DL
Тип рипа: tracks
Описание:
Шопен превратил Скерцо в новую форму фортепианной композиции: самостоятельное виртуозное произведение, которое он приправил драматизмом, польской народной песней, спокойствием и нюансами. Импровизированные композиции с их ритмичным лифтом и филигранным орнаментом пронизаны романтической свободой, в то время как Allegro de concert, Op. 46 изначально задумывался как часть запланированного фортепианного концерта, но вместо этого был переработан для фортепиано соло.
Mao Fujita был удостоен второй премии на 16-м Международном конкурсе Чайковского в 2019 году. Лауреат многочисленных национальных и международных конкурсов, таких как World Classic на Тайване (2010, первая премия в младшей секции), Международный конкурс пианистов Rosario Marciano в Вене (Австрия, 2013), международный конкурс молодых музыкантов имени Моцарта (Zhuhai, 2015), Международный конкурс молодых пианистов Gina Bachauer (США, 2016) и многие другие.
В 2017 году он выиграл первый приз, а также три специальных приза на Concours International De Piano Clara Haskil в Швейцарии. В октябре 2019 года Fujita дебютировал в Великобритании с оркестром Мариинского театра под управлением Валерия Гергиева, это выступление получило признание критиков The Times. Сразу после этого успеха он дебютировал в Сеуле и Москве. Mao Fujita записал несколько альбомов под лейблом Naxos Japan, среди которых музыка Бетховена, Шопена, Моцарта, Листа и Прокофьева.
Треклист:
01. - Impromptu No. 1 in A-Flat Major, Op. 29 (04:12)
02. - Impromptu No. 2 in F-Sharp Major, Op. 36 (Live) (06:01)
03. - Impromptu No. 3 in G-Flat Major, Op. 51 (Live) (05:15)
04. - Fantasy-Impromptu in C-Sharp Minor, Op. 66 (05:05)
05. - Allegro de concert in A Major, Op. 46 (12:35)
06. - Scherzo No. 1 in B Minor, Op. 20 (10:26)
07. - Scherzo No. 2 in B-Flat Minor, Op. 31 (10:31)
08. - Scherzo No. 3 in C-Sharp Minor, Op. 39 (07:35)
09. - Scherzo No. 4 in E Major, Op. 54 (Live) (11:14)

Код: выделить все
----------------------------------------------------------------------------------------------
 Analyzed: Chopin: Impromptus & Scherzos /  Artist: Mao Fujita
----------------------------------------------------------------------------------------------
DR  Peak  RMS  Duration  Title [codec]
----------------------------------------------------------------------------------------------
 DR13  -5.38 dB  -26.38 dB  4:11  01 - Impromptu No. 1 in A-Flat Major, Op. 29   [flac]
 DR16  -1.84 dB  -27.79 dB  6:00  02 - Impromptu No. 2 in F-Sharp Major, Op. 36 (Live)   [flac]
 DR12  -4.42 dB  -21.68 dB  5:13  03 - Impromptu No. 3 in G-Flat Major, Op. 51 (Live)   [flac]
 DR12  -5.29 dB  -26.05 dB  5:04  04 - Fantasy-Impromptu in C-Sharp Minor, Op. 66   [flac]
 DR14  -0.38 dB  -21.28 dB  12:34  05 - Allegro de concert in A Major, Op. 46   [flac]
 DR16  -0.76 dB  -24.42 dB  10:25  06 - Scherzo No. 1 in B Minor, Op. 20   [flac]
 DR14  -1.09 dB  -23.42 dB  10:31  07 - Scherzo No. 2 in B-Flat Minor, Op. 31   [flac]
 DR14  -0.01 dB  -22.98 dB  7:34  08 - Scherzo No. 3 in C-Sharp Minor, Op. 39   [flac]
 DR16  -0.27 dB  -25.23 dB  11:14  09 - Scherzo No. 4 in E Major, Op. 54 (Live)   [flac]
----------------------------------------------------------------------------------------------
 Number of files:    9
 Official DR value:  DR14

 Sampling rate:     96000 Hz
 Average bitrate:     2092kbs
 Bits per sample:     24 bit

Dr14 T.meter 1.0.16
==============================================================================================
Общее
Полное имя : G:\Mao Fujita - Chopin_Impromptus and Scherzos {Hi-Res}[nnmclub.to]\01 - Impromptu No. 1 in A-Flat Major, Op. 29.flac
Формат : FLAC
Формат/Информация : Free Lossless Audio Codec
Размер файла : 61,9 Мбайт
Продолжительность : 4 м. 11 с.
Режим общего битрейта : Переменный
Общий поток : 2 059 Кбит/сек
Альбом : Chopin: Impromptus & Scherzos
Альбом/Исполнитель : Mao Fujita
Трек : Impromptu No. 1 in A-Flat Major, Op. 29
Трек/Положение : 01
Трек/Всего : 09
Исполнитель : Mao Fujita
Жанр : Classical
Дата записи : 2020
Обложка : Yes
Описание обложки : cover.jpg
Тип обложки : Cover (front)
MIME-тип обложки : image/jpeg

Аудио
Формат : FLAC
Формат/Информация : Free Lossless Audio Codec
Продолжительность : 4 м. 11 с.
Вид битрейта : Переменный
Битрейт : 2 034 Кбит/сек
Каналы : 2 канала
Channel layout : L R
Частота : 96,0 КГц
Битовая глубина : 24 бит
Метод сжатия : Без потерь
Размер потока : 61,1 Мбайт (99%)
Библиотека кодирования : Mutagen 1.43.0

Общее
Полное имя : G:\Mao Fujita - Chopin_Impromptus and Scherzos {Hi-Res}[nnmclub.to]\02 - Impromptu No. 2 in F-Sharp Major, Op. 36 (Live).flac
Формат : FLAC
Формат/Информация : Free Lossless Audio Codec
Размер файла : 87,3 Мбайт
Продолжительность : 6 м. 1 с.
Режим общего битрейта : Переменный
Общий поток : 2 029 Кбит/сек
Альбом : Chopin: Impromptus & Scherzos
Альбом/Исполнитель : Mao Fujita
Трек : Impromptu No. 2 in F-Sharp Major, Op. 36 (Live)
Трек/Положение : 02
Трек/Всего : 09
Исполнитель : Mao Fujita
Жанр : Classical
Дата записи : 2020
Обложка : Yes
Описание обложки : cover.jpg
Тип обложки : Cover (front)
MIME-тип обложки : image/jpeg

Аудио
Формат : FLAC
Формат/Информация : Free Lossless Audio Codec
Продолжительность : 6 м. 1 с.
Вид битрейта : Переменный
Битрейт : 2 011 Кбит/сек
Каналы : 2 канала
Channel layout : L R
Частота : 96,0 КГц
Битовая глубина : 24 бит
Метод сжатия : Без потерь
Размер потока : 86,5 Мбайт (99%)
Библиотека кодирования : Mutagen 1.43.0

Общее
Полное имя : G:\Mao Fujita - Chopin_Impromptus and Scherzos {Hi-Res}[nnmclub.to]\03 - Impromptu No. 3 in G-Flat Major, Op. 51 (Live).flac
Формат : FLAC
Формат/Информация : Free Lossless Audio Codec
Размер файла : 82,4 Мбайт
Продолжительность : 5 м. 14 с.
Режим общего битрейта : Переменный
Общий поток : 2 198 Кбит/сек
Альбом : Chopin: Impromptus & Scherzos
Альбом/Исполнитель : Mao Fujita
Трек : Impromptu No. 3 in G-Flat Major, Op. 51 (Live)
Трек/Положение : 03
Трек/Всего : 09
Исполнитель : Mao Fujita
Жанр : Classical
Дата записи : 2020
Обложка : Yes
Описание обложки : cover.jpg
Тип обложки : Cover (front)
MIME-тип обложки : image/jpeg

Аудио
Формат : FLAC
Формат/Информация : Free Lossless Audio Codec
Продолжительность : 5 м. 14 с.
Вид битрейта : Переменный
Битрейт : 2 177 Кбит/сек
Каналы : 2 канала
Channel layout : L R
Частота : 96,0 КГц
Битовая глубина : 24 бит
Метод сжатия : Без потерь
Размер потока : 81,7 Мбайт (99%)
Библиотека кодирования : Mutagen 1.43.0

Общее
Полное имя : G:\Mao Fujita - Chopin_Impromptus and Scherzos {Hi-Res}[nnmclub.to]\04 - Fantasy-Impromptu in C-Sharp Minor, Op. 66.flac
Формат : FLAC
Формат/Информация : Free Lossless Audio Codec
Размер файла : 74,0 Мбайт
Продолжительность : 5 м. 5 с.
Режим общего битрейта : Переменный
Общий поток : 2 035 Кбит/сек
Альбом : Chopin: Impromptus & Scherzos
Альбом/Исполнитель : Mao Fujita
Трек : Fantasy-Impromptu in C-Sharp Minor, Op. 66
Трек/Положение : 04
Трек/Всего : 09
Исполнитель : Mao Fujita
Жанр : Classical
Дата записи : 2020
Обложка : Yes
Описание обложки : cover.jpg
Тип обложки : Cover (front)
MIME-тип обложки : image/jpeg

Аудио
Формат : FLAC
Формат/Информация : Free Lossless Audio Codec
Продолжительность : 5 м. 5 с.
Вид битрейта : Переменный
Битрейт : 2 013 Кбит/сек
Каналы : 2 канала
Channel layout : L R
Частота : 96,0 КГц
Битовая глубина : 24 бит
Метод сжатия : Без потерь
Размер потока : 73,2 Мбайт (99%)
Библиотека кодирования : Mutagen 1.43.0

Общее
Полное имя : G:\Mao Fujita - Chopin_Impromptus and Scherzos {Hi-Res}[nnmclub.to]\05 - Allegro de concert in A Major, Op. 46.flac
Формат : FLAC
Формат/Информация : Free Lossless Audio Codec
Размер файла : 195 Мбайт
Продолжительность : 12 м. 35 с.
Режим общего битрейта : Переменный
Общий поток : 2 168 Кбит/сек
Альбом : Chopin: Impromptus & Scherzos
Альбом/Исполнитель : Mao Fujita
Трек : Allegro de concert in A Major, Op. 46
Трек/Положение : 05
Трек/Всего : 09
Исполнитель : Mao Fujita
Жанр : Classical
Дата записи : 2020
Обложка : Yes
Описание обложки : cover.jpg
Тип обложки : Cover (front)
MIME-тип обложки : image/jpeg

Аудио
Формат : FLAC
Формат/Информация : Free Lossless Audio Codec
Продолжительность : 12 м. 35 с.
Вид битрейта : Переменный
Битрейт : 2 158 Кбит/сек
Каналы : 2 канала
Channel layout : L R
Частота : 96,0 КГц
Битовая глубина : 24 бит
Метод сжатия : Без потерь
Размер потока : 194 Мбайт (100%)
Библиотека кодирования : Mutagen 1.43.0

Общее
Полное имя : G:\Mao Fujita - Chopin_Impromptus and Scherzos {Hi-Res}[nnmclub.to]\06 - Scherzo No. 1 in B Minor, Op. 20.flac
Формат : FLAC
Формат/Информация : Free Lossless Audio Codec
Размер файла : 155 Мбайт
Продолжительность : 10 м. 26 с.
Режим общего битрейта : Переменный
Общий поток : 2 075 Кбит/сек
Альбом : Chopin: Impromptus & Scherzos
Альбом/Исполнитель : Mao Fujita
Трек : Scherzo No. 1 in B Minor, Op. 20
Трек/Положение : 06
Трек/Всего : 09
Исполнитель : Mao Fujita
Жанр : Classical
Дата записи : 2020
Обложка : Yes
Описание обложки : cover.jpg
Тип обложки : Cover (front)
MIME-тип обложки : image/jpeg

Аудио
Формат : FLAC
Формат/Информация : Free Lossless Audio Codec
Продолжительность : 10 м. 26 с.
Вид битрейта : Переменный
Битрейт : 2 063 Кбит/сек
Каналы : 2 канала
Channel layout : L R
Частота : 96,0 КГц
Битовая глубина : 24 бит
Метод сжатия : Без потерь
Размер потока : 154 Мбайт (99%)
Библиотека кодирования : Mutagen 1.43.0

Общее
Полное имя : G:\Mao Fujita - Chopin_Impromptus and Scherzos {Hi-Res}[nnmclub.to]\07 - Scherzo No. 2 in B-Flat Minor, Op. 31.flac
Формат : FLAC
Формат/Информация : Free Lossless Audio Codec
Размер файла : 158 Мбайт
Продолжительность : 10 м. 31 с.
Режим общего битрейта : Переменный
Общий поток : 2 097 Кбит/сек
Альбом : Chopin: Impromptus & Scherzos
Альбом/Исполнитель : Mao Fujita
Трек : Scherzo No. 2 in B-Flat Minor, Op. 31
Трек/Положение : 07
Трек/Всего : 09
Исполнитель : Mao Fujita
Жанр : Classical
Дата записи : 2020
Обложка : Yes
Описание обложки : cover.jpg
Тип обложки : Cover (front)
MIME-тип обложки : image/jpeg

Аудио
Формат : FLAC
Формат/Информация : Free Lossless Audio Codec
Продолжительность : 10 м. 31 с.
Вид битрейта : Переменный
Битрейт : 2 086 Кбит/сек
Каналы : 2 канала
Channel layout : L R
Частота : 96,0 КГц
Битовая глубина : 24 бит
Метод сжатия : Без потерь
Размер потока : 157 Мбайт (99%)
Библиотека кодирования : Mutagen 1.43.0

Общее
Полное имя : G:\Mao Fujita - Chopin_Impromptus and Scherzos {Hi-Res}[nnmclub.to]\08 - Scherzo No. 3 in C-Sharp Minor, Op. 39.flac
Формат : FLAC
Формат/Информация : Free Lossless Audio Codec
Размер файла : 115 Мбайт
Продолжительность : 7 м. 35 с.
Режим общего битрейта : Переменный
Общий поток : 2 112 Кбит/сек
Альбом : Chopin: Impromptus & Scherzos
Альбом/Исполнитель : Mao Fujita
Трек : Scherzo No. 3 in C-Sharp Minor, Op. 39
Трек/Положение : 08
Трек/Всего : 09
Исполнитель : Mao Fujita
Жанр : Classical
Дата записи : 2020
Обложка : Yes
Описание обложки : cover.jpg
Тип обложки : Cover (front)
MIME-тип обложки : image/jpeg

Аудио
Формат : FLAC
Формат/Информация : Free Lossless Audio Codec
Продолжительность : 7 м. 35 с.
Вид битрейта : Переменный
Битрейт : 2 097 Кбит/сек
Каналы : 2 канала
Channel layout : L R
Частота : 96,0 КГц
Битовая глубина : 24 бит
Метод сжатия : Без потерь
Размер потока : 114 Мбайт (99%)
Библиотека кодирования : Mutagen 1.43.0

Общее
Полное имя : G:\Mao Fujita - Chopin_Impromptus and Scherzos {Hi-Res}[nnmclub.to]\09 - Scherzo No. 4 in E Major, Op. 54 (Live).flac
Формат : FLAC
Формат/Информация : Free Lossless Audio Codec
Размер файла : 166 Мбайт
Продолжительность : 11 м. 14 с.
Режим общего битрейта : Переменный
Общий поток : 2 065 Кбит/сек
Альбом : Chopin: Impromptus & Scherzos
Альбом/Исполнитель : Mao Fujita
Трек : Scherzo No. 4 in E Major, Op. 54 (Live)
Трек/Положение : 09
Трек/Всего : 09
Исполнитель : Mao Fujita
Жанр : Classical
Дата записи : 2020
Обложка : Yes
Описание обложки : cover.jpg
Тип обложки : Cover (front)
MIME-тип обложки : image/jpeg

Аудио
Формат : FLAC
Формат/Информация : Free Lossless Audio Codec
Продолжительность : 11 м. 14 с.
Вид битрейта : Переменный
Битрейт : 2 054 Кбит/сек
Каналы : 2 канала
Channel layout : L R
Частота : 96,0 КГц
Битовая глубина : 24 бит
Метод сжатия : Без потерь
Размер потока : 165 Мбайт (99%)
Библиотека кодирования : Mutagen 1.43.0

Общее
Полное имя : G:\Mao Fujita - Chopin_Impromptus and Scherzos {Hi-Res}[nnmclub.to]\Scans\back.jpg
Формат : JPEG
Размер файла : 399 Кбайт

Изображения
Формат : JPEG
Ширина : 1 600 пикселей
Высота : 1 400 пикселей
Цветовое пространство : YUV
Субдискретизация насыщенности : 4:4:4
Битовая глубина : 8 бит
Метод сжатия : С потерями
Размер потока : 399 Кбайт (100%)

Общее
Полное имя : G:\Mao Fujita - Chopin_Impromptus and Scherzos {Hi-Res}[nnmclub.to]\Scans\cover.jpg
Формат : JPEG
Размер файла : 722 Кбайт

Изображения
Формат : JPEG
Ширина : 3 200 пикселей
Высота : 3 200 пикселей
Цветовое пространство : YUV
Субдискретизация насыщенности : 4:2:0
Битовая глубина : 8 бит
Метод сжатия : С потерями
Размер потока : 722 Кбайт (100%)
ColorSpace_ICC : RGB

Общее
Полное имя : G:\Mao Fujita - Chopin_Impromptus and Scherzos {Hi-Res}[nnmclub.to]\poster.jpg
Формат : JPEG
Размер файла : 64,2 Кбайт

Изображения
Формат : JPEG
Ширина : 500 пикселей
Высота : 500 пикселей
Цветовое пространство : YUV
Субдискретизация насыщенности : 4:4:4
Битовая глубина : 8 бит
Метод сжатия : С потерями

YouTube
Nicolas de Angelis - Grand Concert (1986)
Семья Штраусов - Венский бал. Вальсы, польки и марши семьи Штраусов (1998)
Берлинский филармонический оркестр Герберта фон Караяна - Вольфганг Амадей Моцарт. Шедевры (2002)
Давид Ашкенази - Ten Of The Famous Piano Music (2006)
Скрипичный проект "Династия" - Париж, Весна, Романтика (2008)
Escala - Escala (2009)
VA - 20 лучших вальсов. Шедевры классики (1999)
VA - Шедевры классики в исполнении эстрадных оркестров (2003)
VA - 20 шедевров классической музыки. Хиты планеты (2003)
VA - 20 шедевров классической музыки. Хиты планеты (2003) MP3
VA - The Very Best Of Relaxing Classics (2CD) (2003)
VA - Hall of Fame The Great Composers. Classic FM (4CD Box Set) (2004)
VA - Music... The Universal Language I (10 CD BOX SET) (2004)
VA - Harmonia Mundi's Century Collection – A History of Music (20 CD) (2005)
VA - Weekend classics series by Deutsche Grammophon (11 CD из 35) (2006)
VA - Classic FM Guitar - The Ultimate Classical Guitar Album (2 CD Box Set) (2008)
VA - The Ultimate Classical Album [Box set] (4CD)(2008)
VA - Masters of Classical Music (10CD) (2008)
VA - Forever Classics (16CD) (2008)
VA - The Most Popular Classical Music In The World...Ever! Part 1 - 3 (6CD) (2008)
VA - The Number One Classical Album (2 CD) (2008)
VA - Relaxing Classics 101 (6CD) (2009)
VA - The most relaxing Piano album in the world…ever! (2CD) (2009)
VA - Классика в рок обработке. Хиты Планеты (2010)
VA - Himmlische Entspannung (3CD) (2010)
VA - Современная обработка классической музыки (2011)
VA - Классика & Классика в современной обработке (2011)
VA - Best violin 50 (2011)
VA - Classic by RoNikEr (2011)
VA - Classic In Modern (Классика в ремиксах) (2011)
Mao Fujita - Chopin: Impromptus and Scherzos (2020)
Peter Nero - In Person (1963)
Winifred Atwell - 4 альбома (1964 - 2009)
Erwin Wiener - Piano nostalgico vol.2 (1976)
Dick Hyman - Face the Music: A Century of Irving Berlin (1987)
Mladen Franko & The Norman Candler Strings - Piano Talk (1989)
Raul Di Blasio - Сборник 7СD (1991-2008)
George Feyer - George Feyer Plays George Gershwin (1991)
Bernward Koch - 5 альбомов (1995-2009)
Linda Genteel - World's Greatest Love Songs (1995)
Jonathan Cain - Piano With A View (1995)
Giovanni Marradi - 4CD (1996, 1998, 2010)
Роман Коляда - Trinity (2001), Angels Return (2011)
Erroll Garner - Play Piano Play (2001)
Kevin Asbjornson - Awakening (2002)
Robin Spielberg - The Christmas Collection (2002)
Greg Maroney - 2 альбома (2003, 2005)
Beegie Adair - 5 альбомов (2004-2011)
Denis Solee with The Beegie Adair Trio - 2 альбома (2005, 2007)
Owen Richards - Wishes (2006)
Yahan Team & Stuart Jones - Love eternal. Eternal dream. Romantic piano (2007)
Fiona Joy Hawkins - Blue Dream (2008)
Jim Brickman - Valentine (2008)
David Michael Cass - The Worlds Greatest Piano Album (2CD) (2009)
Jorgen Kruse - Solo Piano (2009)
Wang Wei - 5 альбомов (2009, 2010)
Beegie Adair - Swingin' With Sinatra (2010)
OVA - Нежность (EP) (2010)
OVA - Вспоминай меня (2011)
VA - Moonlight Piano - Lover's Rhapsody (1996)
VA - Grand Piano Narada Anniversary Collection (2CD) (1997)
VA - Romantic Collection. Piano (2006)
VA - Ten Of The Famous Piano Music (2006)
VA - Jazz Piano History (20 CD-set) (2006)
VA - Swinging Jazz Piano (2006)
VA - Twin Piano Instrumental (6CD) (2007)
VA - Romantic Melodies - Velvet Piano (2007)
VA - Piano Dreams. Club Lounge Classics (2CD) (2009)
VA - Romantic Piano Compilation (2009)
VA - Feelings Enchanting Piano Melodies (2CD) (2009)
VA - The most relaxing Piano album in the world…ever! (2CD) (2009)
VA - The most Romantic Piano album in the world…ever! (2CD) (2009)
VA - The Best Of Piano (2009)
VA - The Pianomen. A LoungeLegend Compilation (2010)
Matthew Lee - PianoMan (2018)
François Mardirossian - Moondog Piano Works (2019)
Marcus Schinkel Trio & Joscho Stephan - Classic Meets Gypsy (2019)
Mao Fujita - Chopin: Impromptus and Scherzos (2020)

Время раздачи: c 17:00 до 01:00 (время Киевское (GMT+02:00))
Mao Fujita - Chopin_Impromptus and Scherzos {Hi-Res}[nnmclub.to].torrent
 Торрент: Золотая раздача  Зарегистрирован
 
Зарегистрируйтесь и скачайте торрент!
11,9 KB

Примагнититься
 Зарегистрирован:   30 Сен 2020 18:48:48
 Размер:   1,07 GB  (
 Рейтинг:    (Голосов: 7)
 Поблагодарили:   46
 Проверка:   Оформление проверено модератором 01 Окт 2020 00:10:44
Как cкачать  ·  Как раздать  ·  Правильно оформить  ·  Поднять ратио!  
nnm_tr
Стаж: 11 лет 2 мес.
Сообщений: 236
Ratio: 20,266
4.78%
Откуда: Moskow
russia.gif
Заглянул в каталог "VA - The Ultimate Classical Album [Box set] (4CD)(2008)", там печалька:

"Топик был перенесен из форума Сборники в форум Архив Музыки
Причина переноса: нет сидов"

Добавлено спустя 29 секунд:

Заглянул в каталог "VA - The Ultimate Classical Album [Box set] (4CD)(2008)", там печалька:

"Топик был перенесен из форума Сборники в форум Архив Музыки
Причина переноса: нет сидов"
Показать сообщения:   
Начать новую тему   Ответить на тему    Торрент-трекер NNM-Club -> HD Audio и Многоканальная Музыка -> WEB-DL-Audio Часовой пояс: GMT + 3
Страница 1 из 1