Классический форум-трекер
canvas not supported
Нас вместе: 4 131 105

T.Rex - Electric Warrior (1971) 2020 [DSD 128|tracks|Vinyl-Rip] <Glam Rock>


 
 
RSS
Начать новую тему   Ответить на тему    Торрент-трекер NNM-Club -> HD Audio и Многоканальная Музыка -> Vinyl-Rip и Hand-Made
Автор Сообщение
tegoffs ®
Виниловод. Сталкер
Стаж: 12 лет 10 мес.
Сообщений: 2951
Ratio: 17,721
Поблагодарили: 10463
100%
Откуда: мне знать?
honduras.gif
T.Rex - Electric Warrior (1971)
Год: 1971 (reissue 2020)
Лейбл: Mobile Fidelity Sound Lab (MFSL 2-490)
Страна: USA
Жанр: Glam Rock
Продолжительность: 00:39:34

Кодек: DSD 128
Тип рипа: tracks
Формат записи: 1/5.6 MHz
Формат раздачи: 1/5.6 MHz

Треклист:
01. Mambo Sun (3:39)
02. Cosmic Dancer (4:31)
03. Jeepster (4:11)
04. Monolith (3:50)
05. Lean Woman Blues (3:02)
06. Bang a Gong (Get It On) (4:26)
07. Planet Queen (3:14)
08. Girl (2:33)
09. The Motivator (4:00)
10. Life's a Gas (2:25)
11. Rip Off (3:43)

Первопресс этого альбома стоит дорого, потому я купил себе издание от Reprise 2003 года. Не рекоммендую - помимо так себе звука, там еще есть откровенный брак в нескольких местах. А потому, когда MFSL выпустил свою версию, я решил поменять свою кривую версию на эту, которая звучит хорошо. Было бы интересно сравнить с первопрессом, если бы денег было некуда девать.
Состояние диска отличное - nm.
Тракт: AT-OC9/III -> Yamaha GT-750 -> Lehmann Audio Black Cube SE -> Korg MR-2000S (интерконнекты Yamaha и AudioQuest Evergreen).
Без обработки.
Постер и дополнительная информация прописаны в треках.
Ковриков нет.
Код: выделить все
General
Complete name                            : J:\torrents\T.Rex - 1971 - Electric Warrior\01. Mambo Sun.dsf
Format                                   : DSF
Format/Info                              : Direct Stream Digital Stream File
Format version                           : Version 1
File size                                : 294 MiB
Duration                                 : 3 min 38 s
Overall bit rate                         : 11.3 Mb/s
Album replay gain                        : -1.51 dB
Album replay gain peak                   : 0.731435
Album                                    : Electric Warrior (MFSL)
Track name                               : Mambo Sun
Track name/Position                      : 1
Track name/Total                         : 11
Performer                                : T.Rex
Publisher                                : https://www.discogs.com/T-Rex-Electric-Warrior/release/15791974
Recorded date                            : 1971
Writing library                          : KORG AudioGate ver.4.5.2 (Windows 7)
Cover                                    : Yes
Cover type                               : Cover (front)
Cover MIME                               : image/jpeg
Comment                                  : AT-OC9/III -> Yamaha GT-750 -> Lehmann Audio Black Cube SE -> Korg MR-2000S (интерконнекты Yamaha и AudioQuest Evergreen).

Audio
Format                                   : DSD
Format/Info                              : Direct Stream Digital
Commercial name                          : DSD128
Format settings                          : Little
Duration                                 : 3 min 38 s
Bit rate                                 : 11.3 Mb/s
Channel(s)                               : 2 channels
Channel layout                           : L R
Sampling rate                            : 5 645 kHz
Compression mode                         : Lossless
Replay gain                              : -1.51 dB
Replay gain peak                         : 0.731435
Stream size                              : 294 MiB (100%)

General
Complete name                            : J:\torrents\T.Rex - 1971 - Electric Warrior\02. Cosmic Dancer.dsf
Format                                   : DSF
Format/Info                              : Direct Stream Digital Stream File
Format version                           : Version 1
File size                                : 365 MiB
Duration                                 : 4 min 30 s
Overall bit rate                         : 11.3 Mb/s
Album replay gain                        : -2.36 dB
Album replay gain peak                   : 1.242951
Album                                    : Electric Warrior (MFSL)
Track name                               : Cosmic Dancer
Track name/Position                      : 2
Track name/Total                         : 11
Performer                                : T.Rex
Publisher                                : https://www.discogs.com/T-Rex-Electric-Warrior/release/15791974
Recorded date                            : 1971
Writing library                          : KORG AudioGate ver.4.5.2 (Windows 7)
Cover                                    : Yes
Cover type                               : Cover (front)
Cover MIME                               : image/jpeg
Comment                                  : AT-OC9/III -> Yamaha GT-750 -> Lehmann Audio Black Cube SE -> Korg MR-2000S (интерконнекты Yamaha и AudioQuest Evergreen).

Audio
Format                                   : DSD
Format/Info                              : Direct Stream Digital
Commercial name                          : DSD128
Format settings                          : Little
Duration                                 : 4 min 30 s
Bit rate                                 : 11.3 Mb/s
Channel(s)                               : 2 channels
Channel layout                           : L R
Sampling rate                            : 5 645 kHz
Compression mode                         : Lossless
Replay gain                              : -2.36 dB
Replay gain peak                         : 1.242951
Stream size                              : 364 MiB (100%)

General
Complete name                            : J:\torrents\T.Rex - 1971 - Electric Warrior\03. Jeepster.dsf
Format                                   : DSF
Format/Info                              : Direct Stream Digital Stream File
Format version                           : Version 1
File size                                : 338 MiB
Duration                                 : 4 min 11 s
Overall bit rate                         : 11.3 Mb/s
Album replay gain                        : -2.36 dB
Album replay gain peak                   : 1.242951
Album                                    : Electric Warrior (MFSL)
Track name                               : Jeepster
Track name/Position                      : 3
Track name/Total                         : 11
Performer                                : T.Rex
Publisher                                : https://www.discogs.com/T-Rex-Electric-Warrior/release/15791974
Recorded date                            : 1971
Writing library                          : KORG AudioGate ver.4.5.2 (Windows 7)
Cover                                    : Yes
Cover type                               : Cover (front)
Cover MIME                               : image/jpeg
Comment                                  : AT-OC9/III -> Yamaha GT-750 -> Lehmann Audio Black Cube SE -> Korg MR-2000S (интерконнекты Yamaha и AudioQuest Evergreen).

Audio
Format                                   : DSD
Format/Info                              : Direct Stream Digital
Commercial name                          : DSD128
Format settings                          : Little
Duration                                 : 4 min 11 s
Bit rate                                 : 11.3 Mb/s
Channel(s)                               : 2 channels
Channel layout                           : L R
Sampling rate                            : 5 645 kHz
Compression mode                         : Lossless
Replay gain                              : -2.36 dB
Replay gain peak                         : 1.242951
Stream size                              : 338 MiB (100%)

General
Complete name                            : J:\torrents\T.Rex - 1971 - Electric Warrior\04. Monolith.dsf
Format                                   : DSF
Format/Info                              : Direct Stream Digital Stream File
Format version                           : Version 1
File size                                : 310 MiB
Duration                                 : 3 min 50 s
Overall bit rate                         : 11.3 Mb/s
Album replay gain                        : -2.36 dB
Album replay gain peak                   : 1.242951
Album                                    : Electric Warrior (MFSL)
Track name                               : Monolith
Track name/Position                      : 4
Track name/Total                         : 11
Performer                                : T.Rex
Publisher                                : https://www.discogs.com/T-Rex-Electric-Warrior/release/15791974
Recorded date                            : 1971
Writing library                          : KORG AudioGate ver.4.5.2 (Windows 7)
Cover                                    : Yes
Cover type                               : Cover (front)
Cover MIME                               : image/jpeg
Comment                                  : AT-OC9/III -> Yamaha GT-750 -> Lehmann Audio Black Cube SE -> Korg MR-2000S (интерконнекты Yamaha и AudioQuest Evergreen).

Audio
Format                                   : DSD
Format/Info                              : Direct Stream Digital
Commercial name                          : DSD128
Format settings                          : Little
Duration                                 : 3 min 50 s
Bit rate                                 : 11.3 Mb/s
Channel(s)                               : 2 channels
Channel layout                           : L R
Sampling rate                            : 5 645 kHz
Compression mode                         : Lossless
Replay gain                              : -2.36 dB
Replay gain peak                         : 1.242951
Stream size                              : 310 MiB (100%)

General
Complete name                            : J:\torrents\T.Rex - 1971 - Electric Warrior\05. Lean Woman Blues.dsf
Format                                   : DSF
Format/Info                              : Direct Stream Digital Stream File
Format version                           : Version 1
File size                                : 245 MiB
Duration                                 : 3 min 2 s
Overall bit rate                         : 11.3 Mb/s
Album replay gain                        : -2.36 dB
Album replay gain peak                   : 1.242951
Album                                    : Electric Warrior (MFSL)
Track name                               : Lean Woman Blues
Track name/Position                      : 5
Track name/Total                         : 11
Performer                                : T.Rex
Publisher                                : https://www.discogs.com/T-Rex-Electric-Warrior/release/15791974
Recorded date                            : 1971
Writing library                          : KORG AudioGate ver.4.5.2 (Windows 7)
Cover                                    : Yes
Cover type                               : Cover (front)
Cover MIME                               : image/jpeg
Comment                                  : AT-OC9/III -> Yamaha GT-750 -> Lehmann Audio Black Cube SE -> Korg MR-2000S (интерконнекты Yamaha и AudioQuest Evergreen).

Audio
Format                                   : DSD
Format/Info                              : Direct Stream Digital
Commercial name                          : DSD128
Format settings                          : Little
Duration                                 : 3 min 2 s
Bit rate                                 : 11.3 Mb/s
Channel(s)                               : 2 channels
Channel layout                           : L R
Sampling rate                            : 5 645 kHz
Compression mode                         : Lossless
Replay gain                              : -2.36 dB
Replay gain peak                         : 1.242951
Stream size                              : 245 MiB (100%)

General
Complete name                            : J:\torrents\T.Rex - 1971 - Electric Warrior\06. Bang a Gong (Get It On).dsf
Format                                   : DSF
Format/Info                              : Direct Stream Digital Stream File
Format version                           : Version 1
File size                                : 358 MiB
Duration                                 : 4 min 25 s
Overall bit rate                         : 11.3 Mb/s
Album replay gain                        : -2.36 dB
Album replay gain peak                   : 1.242951
Album                                    : Electric Warrior (MFSL)
Track name                               : Bang a Gong (Get It On)
Track name/Position                      : 6
Track name/Total                         : 11
Performer                                : T.Rex
Publisher                                : https://www.discogs.com/T-Rex-Electric-Warrior/release/15791974
Recorded date                            : 1971
Writing library                          : KORG AudioGate ver.4.5.2 (Windows 7)
Cover                                    : Yes
Cover type                               : Cover (front)
Cover MIME                               : image/jpeg
Comment                                  : AT-OC9/III -> Yamaha GT-750 -> Lehmann Audio Black Cube SE -> Korg MR-2000S (интерконнекты Yamaha и AudioQuest Evergreen).

Audio
Format                                   : DSD
Format/Info                              : Direct Stream Digital
Commercial name                          : DSD128
Format settings                          : Little
Duration                                 : 4 min 25 s
Bit rate                                 : 11.3 Mb/s
Channel(s)                               : 2 channels
Channel layout                           : L R
Sampling rate                            : 5 645 kHz
Compression mode                         : Lossless
Replay gain                              : -2.36 dB
Replay gain peak                         : 1.242951
Stream size                              : 358 MiB (100%)

General
Complete name                            : J:\torrents\T.Rex - 1971 - Electric Warrior\07. Planet Queen.dsf
Format                                   : DSF
Format/Info                              : Direct Stream Digital Stream File
Format version                           : Version 1
File size                                : 261 MiB
Duration                                 : 3 min 14 s
Overall bit rate                         : 11.3 Mb/s
Album replay gain                        : -2.36 dB
Album replay gain peak                   : 1.242951
Album                                    : Electric Warrior (MFSL)
Track name                               : Planet Queen
Track name/Position                      : 7
Track name/Total                         : 11
Performer                                : T.Rex
Publisher                                : https://www.discogs.com/T-Rex-Electric-Warrior/release/15791974
Recorded date                            : 1971
Writing library                          : KORG AudioGate ver.4.5.2 (Windows 7)
Cover                                    : Yes
Cover type                               : Cover (front)
Cover MIME                               : image/jpeg
Comment                                  : AT-OC9/III -> Yamaha GT-750 -> Lehmann Audio Black Cube SE -> Korg MR-2000S (интерконнекты Yamaha и AudioQuest Evergreen).

Audio
Format                                   : DSD
Format/Info                              : Direct Stream Digital
Commercial name                          : DSD128
Format settings                          : Little
Duration                                 : 3 min 14 s
Bit rate                                 : 11.3 Mb/s
Channel(s)                               : 2 channels
Channel layout                           : L R
Sampling rate                            : 5 645 kHz
Compression mode                         : Lossless
Replay gain                              : -2.36 dB
Replay gain peak                         : 1.242951
Stream size                              : 261 MiB (100%)

General
Complete name                            : J:\torrents\T.Rex - 1971 - Electric Warrior\08. Girl.dsf
Format                                   : DSF
Format/Info                              : Direct Stream Digital Stream File
Format version                           : Version 1
File size                                : 206 MiB
Duration                                 : 2 min 32 s
Overall bit rate                         : 11.3 Mb/s
Album replay gain                        : -1.51 dB
Album replay gain peak                   : 0.731435
Album                                    : Electric Warrior (MFSL)
Track name                               : Girl
Track name/Position                      : 8
Track name/Total                         : 11
Performer                                : T.Rex
Publisher                                : https://www.discogs.com/T-Rex-Electric-Warrior/release/15791974
Recorded date                            : 1971
Writing library                          : KORG AudioGate ver.4.5.2 (Windows 7)
Cover                                    : Yes
Cover type                               : Cover (front)
Cover MIME                               : image/jpeg
Comment                                  : AT-OC9/III -> Yamaha GT-750 -> Lehmann Audio Black Cube SE -> Korg MR-2000S (интерконнекты Yamaha и AudioQuest Evergreen).

Audio
Format                                   : DSD
Format/Info                              : Direct Stream Digital
Commercial name                          : DSD128
Format settings                          : Little
Duration                                 : 2 min 32 s
Bit rate                                 : 11.3 Mb/s
Channel(s)                               : 2 channels
Channel layout                           : L R
Sampling rate                            : 5 645 kHz
Compression mode                         : Lossless
Replay gain                              : -1.51 dB
Replay gain peak                         : 0.731435
Stream size                              : 206 MiB (100%)

General
Complete name                            : J:\torrents\T.Rex - 1971 - Electric Warrior\09. The Motivator.dsf
Format                                   : DSF
Format/Info                              : Direct Stream Digital Stream File
Format version                           : Version 1
File size                                : 323 MiB
Duration                                 : 4 min 0 s
Overall bit rate                         : 11.3 Mb/s
Album replay gain                        : -2.36 dB
Album replay gain peak                   : 1.242951
Album                                    : Electric Warrior (MFSL)
Track name                               : The Motivator
Track name/Position                      : 9
Track name/Total                         : 11
Performer                                : T.Rex
Publisher                                : https://www.discogs.com/T-Rex-Electric-Warrior/release/15791974
Recorded date                            : 1971
Writing library                          : KORG AudioGate ver.4.5.2 (Windows 7)
Cover                                    : Yes
Cover type                               : Cover (front)
Cover MIME                               : image/jpeg
Comment                                  : AT-OC9/III -> Yamaha GT-750 -> Lehmann Audio Black Cube SE -> Korg MR-2000S (интерконнекты Yamaha и AudioQuest Evergreen).

Audio
Format                                   : DSD
Format/Info                              : Direct Stream Digital
Commercial name                          : DSD128
Format settings                          : Little
Duration                                 : 4 min 0 s
Bit rate                                 : 11.3 Mb/s
Channel(s)                               : 2 channels
Channel layout                           : L R
Sampling rate                            : 5 645 kHz
Compression mode                         : Lossless
Replay gain                              : -2.36 dB
Replay gain peak                         : 1.242951
Stream size                              : 323 MiB (100%)

General
Complete name                            : J:\torrents\T.Rex - 1971 - Electric Warrior\10. Life's a Gas.dsf
Format                                   : DSF
Format/Info                              : Direct Stream Digital Stream File
Format version                           : Version 1
File size                                : 195 MiB
Duration                                 : 2 min 24 s
Overall bit rate                         : 11.3 Mb/s
Album replay gain                        : -2.36 dB
Album replay gain peak                   : 1.242951
Album                                    : Electric Warrior (MFSL)
Track name                               : Life's a Gas
Track name/Position                      : 10
Track name/Total                         : 11
Performer                                : T.Rex
Publisher                                : https://www.discogs.com/T-Rex-Electric-Warrior/release/15791974
Recorded date                            : 1971
Writing library                          : KORG AudioGate ver.4.5.2 (Windows 7)
Cover                                    : Yes
Cover type                               : Cover (front)
Cover MIME                               : image/jpeg
Comment                                  : AT-OC9/III -> Yamaha GT-750 -> Lehmann Audio Black Cube SE -> Korg MR-2000S (интерконнекты Yamaha и AudioQuest Evergreen).

Audio
Format                                   : DSD
Format/Info                              : Direct Stream Digital
Commercial name                          : DSD128
Format settings                          : Little
Duration                                 : 2 min 24 s
Bit rate                                 : 11.3 Mb/s
Channel(s)                               : 2 channels
Channel layout                           : L R
Sampling rate                            : 5 645 kHz
Compression mode                         : Lossless
Replay gain                              : -2.36 dB
Replay gain peak                         : 1.242951
Stream size                              : 195 MiB (100%)

General
Complete name                            : J:\torrents\T.Rex - 1971 - Electric Warrior\11. Rip Off.dsf
Format                                   : DSF
Format/Info                              : Direct Stream Digital Stream File
Format version                           : Version 1
File size                                : 300 MiB
Duration                                 : 3 min 43 s
Overall bit rate                         : 11.3 Mb/s
Album replay gain                        : -2.36 dB
Album replay gain peak                   : 1.242951
Album                                    : Electric Warrior (MFSL)
Track name                               : Rip Off
Track name/Position                      : 11
Track name/Total                         : 11
Performer                                : T.Rex
Publisher                                : https://www.discogs.com/T-Rex-Electric-Warrior/release/15791974
Recorded date                            : 1971
Writing library                          : KORG AudioGate ver.4.5.2 (Windows 7)
Cover                                    : Yes
Cover type                               : Cover (front)
Cover MIME                               : image/jpeg
Comment                                  : AT-OC9/III -> Yamaha GT-750 -> Lehmann Audio Black Cube SE -> Korg MR-2000S (интерконнекты Yamaha и AudioQuest Evergreen).

Audio
Format                                   : DSD
Format/Info                              : Direct Stream Digital
Commercial name                          : DSD128
Format settings                          : Little
Duration                                 : 3 min 43 s
Bit rate                                 : 11.3 Mb/s
Channel(s)                               : 2 channels
Channel layout                           : L R
Sampling rate                            : 5 645 kHz
Compression mode                         : Lossless
Replay gain                              : -2.36 dB
Replay gain peak                         : 1.242951
Stream size                              : 300 MiB (100%)

General
Complete name                            : J:\torrents\T.Rex - 1971 - Electric Warrior\cover.jpeg
Format                                   : JPEG
File size                                : 63.8 KiB

Image
Format                                   : JPEG
Width                                    : 493 pixels
Height                                   : 500 pixels
Color space                              : YUV
Chroma subsampling                       : 4:2:0
Bit depth                                : 8 bits
Compression mode                         : Lossy
Stream size                              : 63.8 KiB (100%)

Код: выделить все
foobar2000 1.4.6 / Dynamic Range Meter 1.1.1
log date: 2020-10-01 09:34:20

--------------------------------------------------------------------------------
Analyzed: T.Rex / Electric Warrior (MFSL)
--------------------------------------------------------------------------------

DR         Peak         RMS     Duration Track
--------------------------------------------------------------------------------
DR12      -2.60 dB   -15.94 dB      3:39 01-Mambo Sun
DR12      -3.43 dB   -17.17 dB      4:31 02-Cosmic Dancer
DR13      -2.69 dB   -17.97 dB      4:11 03-Jeepster
DR12      -1.75 dB   -17.06 dB      3:50 04-Monolith
DR11      -1.78 dB   -15.10 dB      3:02 05-Lean Woman Blues
DR10      -3.35 dB   -16.40 dB      4:26 06-Bang a Gong (Get It On)
DR12      -2.14 dB   -17.60 dB      3:14 07-Planet Queen
DR11      -4.59 dB   -18.70 dB      2:33 08-Girl
DR12      -2.43 dB   -16.85 dB      4:00 09-The Motivator
DR12      -1.85 dB   -16.99 dB      2:25 10-Life's a Gas
DR11      -0.11 dB   -14.11 dB      3:43 11-Rip Off
--------------------------------------------------------------------------------

Number of tracks:  11
Official DR value: DR12

Samplerate:        5644800 Hz / PCM Samplerate: 176400 Hz
Channels:          2
Bits per sample:   1
Bitrate:           11290 kbps
Codec:             DSD128
================================================================================
Время раздачи: 24/7 до пяти скачавших.
[NNMClub.to]_T.Rex - 1971 - Electric Warrior.torrent
 Торрент: Платиновая раздача  Зарегистрирован
 
Скачать


Примагнититься
 Зарегистрирован:   01 Окт 2020 17:06:32
 Размер:   3,12 GB  (
 Рейтинг:    (Голосов: 9)
 Поблагодарили:   48
 Проверка:   Оформление проверено модератором 01 Окт 2020 19:34:32
Как cкачать  ·  Как раздать  ·  Правильно оформить  ·  Поднять ратио!  
SergeySer2
Стаж: 9 лет 5 мес.
Сообщений: 101
Ratio: 42,527
Поблагодарили: 190
100%
Заценим DSD.
VINIL MAN
Виниловый маньяк
Стаж: 10 лет 8 мес.
Сообщений: 8978
Ratio: 89,039
Раздал: 2,699 TB
Поблагодарили: 35686
100%
Откуда: Переяслав
ukraine.gif
Наконец то руки дошли скачать. :смущение:
Дякую! :респект:

_________________
Я не собираюсь менять мир, я просто хочу перевязать вам раны... Ян Андерсон
tegoffs ®
Виниловод. Сталкер
Стаж: 12 лет 10 мес.
Сообщений: 2951
Ratio: 17,721
Поблагодарили: 10463
100%
Откуда: мне знать?
honduras.gif
VINIL MAN
Всегда пожалуйста :)

Вот сижу думаю - оцифровать ли Slade Old New Borrowed and Blue. Состояние для первопресса очень даже неплохо.

_________________
It's only rock 'n' roll but I like it! (c) Jagger and Richards
Afanasiy99
Стаж: 9 лет
Сообщений: 8
Ratio: 4,921
20.44%
ussr.gif
Спасибо! Ждем еще релизов! =)
VINIL MAN
Виниловый маньяк
Стаж: 10 лет 8 мес.
Сообщений: 8978
Ratio: 89,039
Раздал: 2,699 TB
Поблагодарили: 35686
100%
Откуда: Переяслав
ukraine.gif
tegoffs
А шо тут дума? Еси е то нуно дела!
P.S. Есь оцифровка Полидоровского винила. Трескуча сильно на перво треке да и в целомЪ.
Хотелося сравни-замени. :смущение: :D

_________________
Я не собираюсь менять мир, я просто хочу перевязать вам раны... Ян Андерсон
Показать сообщения:   
Начать новую тему   Ответить на тему    Торрент-трекер NNM-Club -> HD Audio и Многоканальная Музыка -> Vinyl-Rip и Hand-Made Часовой пояс: GMT + 3
Страница 1 из 1