Классический форум-трекер
canvas not supported
Нас вместе: 4 130 226

Наперегонки с луной / Racing with the Moon (1984) WEBRip [1080р] ATV [MVO]


 
 
RSS
Начать новую тему   Ответить на тему    Торрент-трекер NNM-Club -> Аудио и Видео -> Зарубежное видео HD для устройств Apple
Автор Сообщение
Весельчак У ®
Модератор Apple
Uploader 100+
Стаж: 6 лет 10 мес.
Сообщений: 7385
Ratio: 176,44
Поблагодарили: 235840
100%
Откуда: От Москвы недалеко...
ussr.gif
Наперегонки с луной / Racing with the Moon (1984) WEBRip [1080р] ATV«It was 1943...There was so little time left to learn about life!»
Производство: США / Jaffe-Lansing, Paramount Pictures
Жанр: Драма, мелодрама, комедия

Режиссер: Ричард Бенджамин
Продюсер: Ален Бернхейм, Джон Кон, Арт Левинсон
Актеры: Шон Пенн, Элизабет МакГоверн, Николас Кейдж, Джон Карлен, Рутаня Олда, Макс Шоуолтер, Криспин Гловер, Барбара Ховард, Боб Марофф, Доминик Нардини, Шон Шеппс, Майкл Мэдсен

Описание:
Рождество 1942 года. Главные герои — Генри Нэш и его друг Никки скоро должны стать морскими пехотинцами. В то время, как Генри сражен недавно появившейся в городке девушкой, хулиганистый и несерьезный Никки попадает в переделку.
Чтобы помочь другу выпутаться, Генри приходится просить помощи у загадочной незнакомки…
Яркие события в жизни героев происходят на фоне одного из самых драматичных периодов в истории Америки.



Возраст: 16+ (зрителям, достигшим 16 лет)
Рейтинг MPAA: PG (рекомендуется присутствие родителей)

Релиз от: NNMClub

Продолжительность: 01:48:22
Качество видео: WEBRip 1080р
Перевод: Профессиональный многоголосый, профессиональный двухголосый, авторский одноголосый
Субтитры: Английские (вшитые, отключаемые)

Видео: H.264, 1920x1080 (16:9), ~13.8 Mbps, 23.976 fps
Аудио#1: AAC, 2.0 ch, 197 Kbps - Русский DVO, Премьер Видео Фильм
Аудио#2: AAC, 2.0 ch, 197 Kbps - Русский MVO, Paramount Channel
Аудио#3: AAC, 2.0 ch, 159 Kbps - Русский AVO, С. Визгунов
Аудио#4: AAC, 2.0 ch, 187 Kbps - English Original

Общее
Полное имя : /Volumes/HDD/Movies/NNMClub/Racing.with.the.Moon.1984.WEB-DLRip.1080p.NNMClub.m4v
Формат : MPEG-4
Идентификатор кодека : M4V (M4V /M4A /mp42/isom)
Размер файла : 11,0 Гбайт
Продолжительность : 1 ч. 48 м.
Режим общего битрейта : Переменный
Общий поток : 14,5 Мбит/сек
Название фильма : Наперегонки с луной
Исполнитель : Richard Benjamin
Режиссёр : Richard Benjamin
Исполнитель : Sean Penn / Nicolas Cage / Elizabeth McGovern / John Karlen / Rutanya Alda / Max Showalter / Crispin Glover / Barbara Howard / Bob Maroff / Carol Kane / Dominic Nardini / John Brandon / Eve Brent / Suzanne Adkinson / Shawn Schepps / Charles Miller / Patricia Allison / Al Hopson / Ted Grossman / Scott McGinnis / Brian Trumbull / Kate Williamson / Julie Philips / Fielding Greaves / Arnold Johnson / Kevin Fraser / Gerry Gibson / Page Hannah / Shane Kerwin / Jonathan Charles Fox / Michael Madsen / Dana Carvey / Victor Rendina / Rebecca Pollack / Victor Paul / Lou Butera / Michael Talbott / Phil Adams / Chuck Picerni Jr. / Philip Romano / Arlin Miller / Jan Rabson / Walter Mathews / Michael Schoeffling
Сценарист : Steve Kloves
Продюсер : John Kohn / Alain Bernheim
Студия-производитель : Jaffe-Lansing, Paramount
Жанр : драма, мелодрама
Тип содержимого : Short Film
Описание : Рождество 1942 года. Главные герои — Генри Нэш и его друг Никки скоро должны стать морскими пехотинцами. В то время, как Генри сражен недавно появившейся в городке девушкой, хулиганистый и несерьезный Никки попадает в переделку. / Чтобы помочь другу…
Дата записи : UTC 1984-03-23 12:00:00
Дата кодирования : UTC 2020-10-11 11:52:57
Дата пометки : UTC 2020-10-11 12:01:22
Обложка : Yes
ContentRating : mpaa|PG|200|

Видео #1
Идентификатор : 1
Формат : AVC
Формат/Информация : Advanced Video Codec
Профиль формата : High@L4
Настройки формата : CABAC / 4 Ref Frames
Параметр CABAC формата : Да
Параметр RefFrames формата : 4 кадра
Идентификатор кодека : avc1
Идентификатор кодека/Информация : Advanced Video Coding
Продолжительность : 1 ч. 48 м.
Вид битрейта : Переменный
Битрейт : 13,8 Мбит/сек
Максимальный битрейт : 15,0 Мбит/сек
Ширина : 1 920 пикселей
Высота : 1 080 пикселей
Соотношение сторон : 16:9
Режим частоты кадров : Переменный
Частота кадров : 29,970 (30000/1001) кадров/сек
Минимальная частота кадров : 29,412 кадров/сек
Максимальная частота кадров : 30,303 кадров/сек
Цветовое пространство : YUV
Субдискретизация насыщенности : 4:2:0
Битовая глубина : 8 бит
Тип развёртки : Прогрессивная
Бит/(Пиксели*Кадры) : 0.221
Размер потока : 10,4 Гбайт (95%)
Библиотека кодирования : x264 core 148 r2623 d5b2374
Настройки программы : cabac=1 / ref=4 / deblock=1:-1:-1 / analyse=0x3:0x133 / me=umh / subme=9 / psy=1 / psy_rd=1.00:0.15 / mixed_ref=1 / me_range=24 / chroma_me=1 / trellis=2 / 8x8dct=1 / cqm=0 / deadzone=21,11 / fast_pskip=1 / chroma_qp_offset=-3 / threads=34 / lookahead_threads=5 / sliced_threads=0 / nr=150 / decimate=1 / interlaced=0 / bluray_compat=0 / constrained_intra=0 / bframes=8 / b_pyramid=2 / b_adapt=2 / b_bias=0 / direct=3 / weightb=1 / open_gop=0 / weightp=2 / keyint=150 / keyint_min=76 / scenecut=0 / intra_refresh=0 / rc_lookahead=150 / rc=crf / mbtree=1 / crf=18.0 / qcomp=0.60 / qpmin=0 / qpmax=69 / qpstep=4 / vbv_maxrate=15000 / vbv_bufsize=31250 / crf_max=0.0 / nal_hrd=vbr / filler=0 / ip_ratio=1.40 / aq=3:1.00
Язык : English
Дата кодирования : UTC 2020-10-11 11:52:57
Дата пометки : UTC 2020-10-11 12:01:06
Цветовой диапазон : Limited
Основные цвета : BT.709
Характеристики трансфера : BT.709
Коэффициенты матрицы : BT.709
Menus : 7,8
Codec configuration box : avcC

Видео #2
Идентификатор : 8
Формат : JPEG
Идентификатор кодека : jpeg
Продолжительность : 1 ч. 48 м.
Вид битрейта : Переменный
Битрейт : 637 бит/сек
Ширина : 640 пикселей
Высота : 360 пикселей
Соотношение сторон : 16:9
Режим частоты кадров : Переменный
Частота кадров : 0,002 кадр/сек
Минимальная частота кадров : 0,001 кадр/сек
Максимальная частота кадров : 0,004 кадр/сек
Цветовое пространство : YUV
Субдискретизация насыщенности : 4:2:0
Битовая глубина : 8 бит
Метод сжатия : С потерями
Бит/(Пиксели*Кадры) : 1.382
Размер потока : 622 Кбайт (0%)
Язык : English
Default : Нет
Дата кодирования : UTC 2020-10-11 12:01:21
Дата пометки : UTC 2020-10-11 12:01:21
Menu For : 1
ColorSpace_ICC : RGB

Аудио #1
Идентификатор : 2
Формат : AAC LC
Формат/Информация : Advanced Audio Codec Low Complexity
Идентификатор кодека : mp4a-40-2
Продолжительность : 1 ч. 48 м.
Вид битрейта : Переменный
Битрейт : 197 Кбит/сек
Максимальный битрейт : 287 Кбит/сек
Каналы : 2 канала
Channel layout : L R
Частота : 48,0 КГц
Частота кадров : 46,875 кадров/сек (1024 SPF)
Метод сжатия : С потерями
Размер потока : 153 Мбайт (1%)
Язык : Russian
Default : Да
Alternate group : 1
Дата кодирования : UTC 2020-10-11 11:52:57
Дата пометки : UTC 2020-10-11 12:01:06
tagc : public.main-program-content

Аудио #2
Идентификатор : 3
Формат : AAC LC
Формат/Информация : Advanced Audio Codec Low Complexity
Идентификатор кодека : mp4a-40-2
Продолжительность : 1 ч. 48 м.
Вид битрейта : Переменный
Битрейт : 197 Кбит/сек
Максимальный битрейт : 252 Кбит/сек
Каналы : 2 канала
Channel layout : L R
Частота : 48,0 КГц
Частота кадров : 46,875 кадров/сек (1024 SPF)
Метод сжатия : С потерями
Размер потока : 153 Мбайт (1%)
Язык : Russian
Default : Нет
Alternate group : 1
Дата кодирования : UTC 2020-10-11 11:52:57
Дата пометки : UTC 2020-10-11 12:01:06
tagc : public.auxiliary-content

Аудио #3
Идентификатор : 4
Формат : AAC LC
Формат/Информация : Advanced Audio Codec Low Complexity
Идентификатор кодека : mp4a-40-2
Продолжительность : 1 ч. 48 м.
Вид битрейта : Переменный
Битрейт : 159 Кбит/сек
Максимальный битрейт : 280 Кбит/сек
Каналы : 2 канала
Channel layout : L R
Частота : 48,0 КГц
Частота кадров : 46,875 кадров/сек (1024 SPF)
Метод сжатия : С потерями
Размер потока : 123 Мбайт (1%)
Язык : Russian
Default : Нет
Alternate group : 1
Дата кодирования : UTC 2020-10-11 11:52:57
Дата пометки : UTC 2020-10-11 12:01:06
tagc : public.auxiliary-content

Аудио #4
Идентификатор : 5
Формат : AAC LC
Формат/Информация : Advanced Audio Codec Low Complexity
Идентификатор кодека : mp4a-40-2
Продолжительность : 1 ч. 48 м.
Продолжительность оригинала : 1 ч. 48 м.
Вид битрейта : Переменный
Битрейт : 187 Кбит/сек
Максимальный битрейт : 321 Кбит/сек
Каналы : 2 канала
Channel layout : L R
Частота : 44,1 КГц
Частота кадров : 43,066 кадра/сек (1024 SPF)
Метод сжатия : С потерями
Размер потока : 145 Мбайт (1%)
Размер потока оригинала : 145 Мбайт (1%)
Язык : English
Default : Нет
Alternate group : 1
Дата кодирования : UTC 2020-10-11 11:52:57
Дата пометки : UTC 2020-10-11 11:54:44
tagc : public.main-program-content

Текст
Идентификатор : 6
Формат : Timed Text
Режим смешивания : sbtl
Идентификатор кодека : tx3g
Продолжительность : 1 ч. 45 м.
Вид битрейта : Переменный
Битрейт : 50 бит/сек
Размер потока : 38,9 Кбайт (0%)
Язык : English
Default : Да
Forced : Нет
Alternate group : 2
Дата кодирования : UTC 2020-10-11 11:52:57
Дата пометки : UTC 2020-10-11 12:01:06
tagc : public.main-program-content

Меню
Идентификатор : 7
Идентификатор кодека : text
Продолжительность : 1 ч. 48 м.
Язык : English
Дата кодирования : UTC 2020-10-11 12:01:06
Дата пометки : UTC 2020-10-11 12:01:06
Menu For : 1
00:00:00.000 : Hopper
00:06:08.000 : Double With Sally
00:14:40.000 : Who Is She?
00:20:16.000 : The Set Up
00:27:24.000 : Christmas Eve
00:33:23.000 : Danny's Tap Room
00:38:58.000 : It's January!
00:47:15.000 : Bird of Freedom
00:51:15.000 : Trains and Fast Lanes
00:57:41.000 : Some Kind of Lesson
01:05:47.000 : Gatsby Girl
01:13:09.000 : First One to 100
01:24:10.000 : Hard Questions
01:29:07.000 : That's Some Business
01:33:00.000 : Confrontations
01:37:08.000 : Each Other's Company


Name: Наперегонки с луной
Artist: Richard Benjamin
Media Kind: Movie
HD Video: 1080р
Genre: драма, мелодрама
Release Date: 1984-03-23T12:00:00Z
Description: Рождество 1942 года. Главные герои — Генри Нэш и его друг Никки скоро должны стать морскими пехотинцами. В то время, как Генри сражен недавно появившейся в городке девушкой, хулиганистый и несерьезный Никки попадает в переделку.
Чтобы помочь другу…
Rating: mpaa|PG|200|
Studio: Jaffe-Lansing, Paramount
Cast: Sean Penn, Nicolas Cage, Elizabeth McGovern, John Karlen, Rutanya Alda, Max Showalter, Crispin Glover, Barbara Howard, Bob Maroff, Carol Kane, Dominic Nardini, John Brandon, Eve Brent, Suzanne Adkinson, Shawn Schepps, Charles Miller, Patricia Allison, Al Hopson, Ted Grossman, Scott McGinnis, Brian Trumbull, Kate Williamson, Julie Philips, Fielding Greaves, Arnold Johnson, Kevin Fraser, Gerry Gibson, Page Hannah, Shane Kerwin, Jonathan Charles Fox, Michael Madsen, Dana Carvey, Victor Rendina, Rebecca Pollack, Victor Paul, Lou Butera, Michael Talbott, Phil Adams, Chuck Picerni Jr., Philip Romano, Arlin Miller, Jan Rabson, Walter Mathews, Michael Schoeffling
Director: Richard Benjamin
Producers: John Kohn, Alain Bernheim
Screenwriters: Steve Kloves

Скриншоты:


Все одноименные релизы в Клубе
Время раздачи: 24/7 (до появления первых 3-5 скачавших)

Релиз подготовлен для просмотра на Apple TV, iPad, iPhone, iPod Touch.
Для просмотра данного релиза на компьютере с ОС Windows рекомендуется использовать VLC media player
Racing.with.the.Moon.1984.WEB-DLRip.1080p.NNMClub.m4v.torrent
 Торрент: Платиновая раздача  Зарегистрирован
 
Скачать


Примагнититься
 Зарегистрирован:   11 Окт 2020 15:13:21
 Размер:   11 GB  (
 Рейтинг:    (Голосов: 2)
 Поблагодарили:   30
 Проверка:   Оформление проверено модератором 11 Окт 2020 18:02:56
Как cкачать  ·  Как раздать  ·  Правильно оформить  ·  Поднять ратио!  

_________________
«Всё против нас, только ветер навстречу…».
🍏Apple iMac 21.5 (mid 2011) / Intel Core i5 2.7 GHz / AMD Radeon HD 6770M 512 Mb / 12GB DDR3 / Apple Trackpad, Apple Keyboard / macOS High Sierra 10.13.6 (17G13033)
Весельчак У ®
Модератор Apple
Uploader 100+
Стаж: 6 лет 10 мес.
Сообщений: 7385
Ratio: 176,44
Поблагодарили: 235840
100%
Откуда: От Москвы недалеко...
ussr.gif
Спасибо TeamHD за предоставленный контент

_________________
«Всё против нас, только ветер навстречу…».
🍏Apple iMac 21.5 (mid 2011) / Intel Core i5 2.7 GHz / AMD Radeon HD 6770M 512 Mb / 12GB DDR3 / Apple Trackpad, Apple Keyboard / macOS High Sierra 10.13.6 (17G13033)
Показать сообщения:   
Начать новую тему   Ответить на тему    Торрент-трекер NNM-Club -> Аудио и Видео -> Зарубежное видео HD для устройств Apple Часовой пояс: GMT + 3
Страница 1 из 1