Классический форум-трекер
canvas not supported
Нас вместе: 4 129 321

Пока не сыграл в ящик / The Bucket List (2007) BDRip [1080р] ATV


 
 
RSS
Начать новую тему   Ответить на тему    Торрент-трекер NNM-Club -> Аудио и Видео -> Зарубежное видео HD для устройств Apple
Автор Сообщение
Весельчак У ®
Модератор Apple
Uploader 100+
Стаж: 6 лет 10 мес.
Сообщений: 7295
Ratio: 176,209
Поблагодарили: 233057
92.04%
Откуда: От Москвы недалеко...
ussr.gif
Пока не сыграл в ящик / The Bucket List (2007) BDRip [1080р] ATV«Оторвись напоследок»
Производство: США / Warner Bros., Zadan / Meron Productions, Two Ton Films
Жанр: Драма, комедия

Режиссер: Роб Райнер
Продюсер: Алан Грейсман, Нил Мерон, Роб Райнер
Актеры: Джек Николсон, Морган Фриман, Шон Хэйес, Беверли Тодд, Роб Морроу, Альфонсо Фриман, Роуэна Кинг, Эннтон Берри мл., Верда Бриджес, Дестини Браунридж

Описание:
Именно так решили два больных раком соседа по больничной палате, когда услышали свой приговор. Один из них вспыльчивый миллиардер, а второй эрудированный автомеханик. Они составляют список дел, которые необходимо сделать прежде, чем они сыграют в ящик, и отправляются в кругосветное путешествие, путешествие всей своей жизни. Прыжки с парашютом? Посмотрим. Гонки на раритетных автомобилях? Сделано. Посмотреть на пирамиды? Отлично. Открыть радость жизни прежде, чем станет слишком поздно? Точно!



Возраст: 12+ (зрителям, достигшим 12 лет)
Рейтинг MPAA: PG-13 (детям до 13 лет просмотр нежелателен)

Релиз от: NNMClub

Продолжительность: 01:37:04
Качество видео: BDRip 1080р
Перевод: Дублированный, авторский одноголосый
Субтитры: Русские (full), Украинские, Английские (Light, SDH)

Видео: H.264, 1920x1080 (16:9), ~15.5 Mbps, 23.976 fps
Аудио#1: AAC, 2.0 ch, 172 Kbps - Русский DUB, R5
Аудио#2: AAC, 2.0 ch, 173 Kbps - Русский AVO, Ю. Немахов
Аудио#3: AAC, 2.0 ch, 181 Kbps - Русский AVO, А. Гаврилов
Аудио#4: AAC, 2.0 ch, 176 Kbps - English Original
Аудио#5: AC3, 6.0 ch, 384 Kbps - Русский DUB, R5
Аудио#6: AC3, 6.0 ch, 448 Kbps - Русский AVO, А. Гаврилов
Аудио#7: AC3, 6.0 ch, 640 Kbps - Русский AVO, Ю. Немахов
Аудио#8: AC3, 6.0 ch, 640 Kbps - English Original

Общее
Полное имя : /Volumes/HDD/Dropbox/The.Bucket.List.2007.BDRip.1080p.NNMClub.m4v
Формат : MPEG-4
Идентификатор кодека : M4V (M4V /M4A /mp42/isom)
Размер файла : 12,4 Гбайт
Продолжительность : 1 ч. 37 м.
Режим общего битрейта : Переменный
Общий поток : 18,3 Мбит/сек
Название фильма : «Пока не сыграл в ящик»
Исполнитель : Unknown
Режиссёр : Unknown
Исполнитель : Jack Nicholson / Morgan Freeman / Sean P. Hayes / Rob Morrow
Сценарист : Justin Zackham
Продюсер : Rob Reiner
Студия-производитель : Warner Bros.
Жанр : Комедии
Тип содержимого : Short Film
Описание : Оскароносные Джек Николсон и Морган Фриман снялись в комедийной драме «Пока не сыграл в ящик» режиссера Роба Райнера о трогательном и беспечном приключении, которое напоминает нам о том, что открыть радость жизни никогда не поздно. Картер и Эдвард оказались соседями по больничной палате, где у них было много времени подумать о том, какой могла бы быть их жизнь дальше... и о том, что многое в ней зависит от них самих. Несмотря на все различия, вскоре выяснилось, что есть у них две общие черты: нереализованная потребность примириться со своим прошлым и выбранными путями, а также непреодолимое желание в оставшееся время делать то, о чем всегда мечталось.
Дата записи : UTC 2008-03-27 07:00:00
Дата кодирования : UTC 2020-10-13 06:20:59
Дата пометки : UTC 2020-10-13 06:28:39
Авторское право : © 2007 Warner Bros. Entertainment, Inc.
Обложка : Yes
AppleStoreCountry : Russia
AppleStoreCatalogID : 517503871
ContentRating : ru-movie|12+|200|

Видео #1
Идентификатор : 1
Формат : AVC
Формат/Информация : Advanced Video Codec
Профиль формата : High@L4.1
Настройки формата : CABAC / 4 Ref Frames
Параметр CABAC формата : Да
Параметр RefFrames формата : 4 кадра
Идентификатор кодека : avc1
Идентификатор кодека/Информация : Advanced Video Coding
Продолжительность : 1 ч. 37 м.
Битрейт : 15,5 Мбит/сек
Ширина : 1 920 пикселей
Высота : 1 080 пикселей
Соотношение сторон : 16:9
Режим частоты кадров : Переменный
Частота кадров : 23,976 (24000/1001) кадра/сек
Минимальная частота кадров : 23,810 кадра/сек
Максимальная частота кадров : 24,390 кадра/сек
Цветовое пространство : YUV
Субдискретизация насыщенности : 4:2:0
Битовая глубина : 8 бит
Тип развёртки : Прогрессивная
Бит/(Пиксели*Кадры) : 0.311
Размер потока : 10,5 Гбайт (85%)
Библиотека кодирования : x264 core 128 r2216kMod 198a7ea
Настройки программы : cabac=1 / ref=4 / deblock=1:-3:-3 / analyse=0x3:0x133 / me=umh / subme=11 / psy=1 / fade_compensate=0.00 / psy_rd=1.00:0.00 / mixed_ref=1 / me_range=32 / chroma_me=1 / trellis=2 / 8x8dct=1 / cqm=0 / deadzone=21,11 / fast_pskip=0 / chroma_qp_offset=-2 / threads=6 / lookahead_threads=1 / sliced_threads=0 / nr=0 / decimate=1 / interlaced=0 / bluray_compat=0 / constrained_intra=0 / bframes=9 / b_pyramid=2 / b_adapt=2 / b_bias=0 / direct=3 / weightb=1 / open_gop=0 / weightp=2 / keyint=240 / keyint_min=23 / scenecut=40 / intra_refresh=0 / rc_lookahead=60 / rc=crf / mbtree=0 / crf=18.0000 / qcomp=0.70 / qpmin=0 / qpmax=69 / qpstep=4 / vbv_maxrate=50000 / vbv_bufsize=62500 / crf_max=0.0 / nal_hrd=none / ip_ratio=1.40 / pb_ratio=1.20 / aq=1:0.60
Язык : English
Дата кодирования : UTC 2020-10-13 06:20:59
Дата пометки : UTC 2020-10-13 06:28:07
Цветовой диапазон : Limited
Коэффициенты матрицы : BT.709
Menus : 15,16
Codec configuration box : avcC

Видео #2
Идентификатор : 16
Формат : JPEG
Идентификатор кодека : jpeg
Продолжительность : 1 ч. 37 м.
Вид битрейта : Переменный
Битрейт : 1 461 бит/сек
Ширина : 640 пикселей
Высота : 360 пикселей
Соотношение сторон : 16:9
Режим частоты кадров : Переменный
Частота кадров : 0,004 кадр/сек
Минимальная частота кадров : 0,003 кадр/сек
Максимальная частота кадров : 0,011 кадр/сек
Цветовое пространство : YUV
Субдискретизация насыщенности : 4:2:0
Битовая глубина : 8 бит
Метод сжатия : С потерями
Бит/(Пиксели*Кадры) : 1.585
Размер потока : 1,00 Мбайт (0%)
Язык : English
Default : Нет
Дата кодирования : UTC 2020-10-13 06:28:37
Дата пометки : UTC 2020-10-13 06:28:38
Menu For : 1
ColorSpace_ICC : RGB

Аудио #1
Идентификатор : 2
Формат : AAC LC
Формат/Информация : Advanced Audio Codec Low Complexity
Идентификатор кодека : mp4a-40-2
Продолжительность : 1 ч. 37 м.
Вид битрейта : Переменный
Битрейт : 172 Кбит/сек
Максимальный битрейт : 294 Кбит/сек
Каналы : 2 канала
Channel layout : L R
Частота : 48,0 КГц
Частота кадров : 46,875 кадров/сек (1024 SPF)
Метод сжатия : С потерями
Размер потока : 120 Мбайт (1%)
Язык : Russian
Default : Да
Alternate group : 1
Дата кодирования : UTC 2020-10-13 06:20:59
Дата пометки : UTC 2020-10-13 06:28:07
Fallback From : 6
tagc : public.main-program-content

Аудио #2
Идентификатор : 3
Формат : AAC LC
Формат/Информация : Advanced Audio Codec Low Complexity
Идентификатор кодека : mp4a-40-2
Продолжительность : 1 ч. 37 м.
Вид битрейта : Переменный
Битрейт : 173 Кбит/сек
Максимальный битрейт : 319 Кбит/сек
Каналы : 2 канала
Channel layout : L R
Частота : 48,0 КГц
Частота кадров : 46,875 кадров/сек (1024 SPF)
Метод сжатия : С потерями
Размер потока : 120 Мбайт (1%)
Язык : Russian
Default : Нет
Alternate group : 1
Дата кодирования : UTC 2020-10-13 06:20:59
Дата пометки : UTC 2020-10-13 06:28:07
Fallback From : 8
tagc : public.auxiliary-content

Аудио #3
Идентификатор : 4
Формат : AAC LC
Формат/Информация : Advanced Audio Codec Low Complexity
Идентификатор кодека : mp4a-40-2
Продолжительность : 1 ч. 37 м.
Продолжительность оригинала : 1 ч. 37 м.
Вид битрейта : Переменный
Битрейт : 181 Кбит/сек
Максимальный битрейт : 294 Кбит/сек
Каналы : 2 канала
Channel layout : L R
Частота : 48,0 КГц
Частота кадров : 46,875 кадров/сек (1024 SPF)
Метод сжатия : С потерями
Размер потока : 126 Мбайт (1%)
Размер потока оригинала : 126 Мбайт (1%)
Язык : Russian
Default : Нет
Alternate group : 1
Дата кодирования : UTC 2020-10-13 06:20:59
Дата пометки : UTC 2020-10-13 06:26:17
Fallback From : 7
tagc : public.main-program-content

Аудио #4
Идентификатор : 5
Формат : AAC LC
Формат/Информация : Advanced Audio Codec Low Complexity
Идентификатор кодека : mp4a-40-2
Продолжительность : 1 ч. 37 м.
Вид битрейта : Переменный
Битрейт : 176 Кбит/сек
Максимальный битрейт : 322 Кбит/сек
Каналы : 2 канала
Channel layout : L R
Частота : 48,0 КГц
Частота кадров : 46,875 кадров/сек (1024 SPF)
Метод сжатия : С потерями
Размер потока : 122 Мбайт (1%)
Язык : English
Default : Нет
Alternate group : 1
Дата кодирования : UTC 2020-10-13 06:20:59
Дата пометки : UTC 2020-10-13 06:28:07
Fallback From : 9
tagc : public.main-program-content

Аудио #5
Идентификатор : 6
Формат : AC-3
Формат/Информация : Audio Coding 3
Коммерческое название : Dolby Digital
Идентификатор кодека : ac-3
Продолжительность : 1 ч. 37 м.
Вид битрейта : Постоянный
Битрейт : 384 Кбит/сек
Каналы : 6 каналов
Channel layout : L R C LFE Ls Rs
Частота : 48,0 КГц
Частота кадров : 31,250 кадров/сек (1536 SPF)
Метод сжатия : С потерями
Размер потока : 267 Мбайт (2%)
Язык : Russian
Service kind : Complete Main
Default : Inherited From: 2
Alternate group : 1
Дата кодирования : UTC 2020-10-13 06:20:59
Дата пометки : UTC 2020-10-13 06:28:07
Fallback To : 2
tagc : public.main-program-content

Аудио #6
Идентификатор : 7
Формат : AC-3
Формат/Информация : Audio Coding 3
Коммерческое название : Dolby Digital
Идентификатор кодека : ac-3
Продолжительность : 1 ч. 37 м.
Вид битрейта : Постоянный
Битрейт : 448 Кбит/сек
Каналы : 6 каналов
Channel layout : L R C LFE Ls Rs
Частота : 48,0 КГц
Частота кадров : 31,250 кадров/сек (1536 SPF)
Метод сжатия : С потерями
Размер потока : 311 Мбайт (2%)
Язык : Russian
Service kind : Complete Main
Default : Нет
Alternate group : 1
Дата кодирования : UTC 2020-10-13 06:20:59
Дата пометки : UTC 2020-10-13 06:26:17
Fallback To : 4
tagc : public.main-program-content

Аудио #7
Идентификатор : 8
Формат : AC-3
Формат/Информация : Audio Coding 3
Коммерческое название : Dolby Digital
Идентификатор кодека : ac-3
Продолжительность : 1 ч. 37 м.
Вид битрейта : Постоянный
Битрейт : 640 Кбит/сек
Каналы : 6 каналов
Channel layout : L R C LFE Ls Rs
Частота : 48,0 КГц
Частота кадров : 31,250 кадров/сек (1536 SPF)
Метод сжатия : С потерями
Размер потока : 444 Мбайт (3%)
Язык : Russian
Service kind : Complete Main
Default : Нет
Alternate group : 1
Дата кодирования : UTC 2020-10-13 06:20:59
Дата пометки : UTC 2020-10-13 06:28:07
Fallback To : 3
tagc : public.auxiliary-content

Аудио #8
Идентификатор : 9
Формат : AC-3
Формат/Информация : Audio Coding 3
Коммерческое название : Dolby Digital
Идентификатор кодека : ac-3
Продолжительность : 1 ч. 37 м.
Вид битрейта : Постоянный
Битрейт : 640 Кбит/сек
Каналы : 6 каналов
Channel layout : L R C LFE Ls Rs
Частота : 48,0 КГц
Частота кадров : 31,250 кадров/сек (1536 SPF)
Метод сжатия : С потерями
Размер потока : 444 Мбайт (3%)
Язык : English
Service kind : Complete Main
Default : Нет
Alternate group : 1
Дата кодирования : UTC 2020-10-13 06:20:59
Дата пометки : UTC 2020-10-13 06:28:07
Fallback To : 5
tagc : public.main-program-content

Текст #1
Идентификатор : 10
Формат : Timed Text
Режим смешивания : sbtl
Идентификатор кодека : tx3g
Продолжительность : 1 ч. 32 м.
Вид битрейта : Переменный
Битрейт : 109 бит/сек
Размер потока : 73,4 Кбайт (0%)
Язык : Russian
Default : Да
Forced : Нет
Alternate group : 2
Дата кодирования : UTC 2020-10-13 06:20:59
Дата пометки : UTC 2020-10-13 06:28:08
tagc : public.main-program-content

Текст #2
Идентификатор : 11
Формат : Timed Text
Режим смешивания : sbtl
Идентификатор кодека : tx3g
Продолжительность : 1 ч. 32 м.
Вид битрейта : Переменный
Битрейт : 111 бит/сек
Размер потока : 75,1 Кбайт (0%)
Язык : Russian
Default : Нет
Forced : Нет
Alternate group : 2
Дата кодирования : UTC 2020-10-13 06:20:59
Дата пометки : UTC 2020-10-13 06:28:08
tagc : public.auxiliary-content

Текст #3
Идентификатор : 12
Формат : Timed Text
Режим смешивания : sbtl
Идентификатор кодека : tx3g
Продолжительность : 1 ч. 32 м.
Вид битрейта : Переменный
Битрейт : 109 бит/сек
Размер потока : 73,6 Кбайт (0%)
Язык : Ukrainian
Default : Нет
Forced : Нет
Alternate group : 2
Дата кодирования : UTC 2020-10-13 06:20:59
Дата пометки : UTC 2020-10-13 06:28:08
tagc : public.main-program-content

Текст #4
Идентификатор : 13
Формат : Timed Text
Режим смешивания : sbtl
Идентификатор кодека : tx3g
Продолжительность : 1 ч. 37 м.
Вид битрейта : Переменный
Битрейт : 63 бит/сек
Размер потока : 44,7 Кбайт (0%)
Язык : English
Default : Нет
Forced : Нет
Alternate group : 2
Дата кодирования : UTC 2020-10-13 06:20:59
Дата пометки : UTC 2020-10-13 06:28:08
tagc : public.main-program-content

Текст #5
Идентификатор : 14
Формат : Timed Text
Режим смешивания : sbtl
Идентификатор кодека : tx3g
Продолжительность : 1 ч. 37 м.
Вид битрейта : Переменный
Битрейт : 66 бит/сек
Размер потока : 46,6 Кбайт (0%)
Язык : English
Default : Нет
Forced : Нет
Alternate group : 2
Дата кодирования : UTC 2020-10-13 06:20:59
Дата пометки : UTC 2020-10-13 06:28:08
tagc : public.accessibility.transcribes-spoken-dialog

Меню
Идентификатор : 15
Идентификатор кодека : text
Продолжительность : 1 ч. 37 м.
Язык : English
Дата кодирования : UTC 2020-10-13 06:28:08
Дата пометки : UTC 2020-10-13 06:28:08
Menu For : 1
00:00:00.000 : 1. About Edward
00:01:30.090 : 2. Two Ailing Men
00:06:09.703 : 3. Roommates
00:12:38.424 : 4. Coffee Origins
00:17:06.358 : 5. Life Choices
00:23:10.723 : 6. Getting Familiar
00:29:30.936 : 7. Bucket List
00:35:30.128 : 8. Time for Myself
00:38:45.490 : 9. Skydiving
00:42:03.688 : 10. Need for Speed
00:45:58.756 : 11. In-Flight Faith
00:49:39.476 : 12. Little Accident
00:53:04.681 : 13. Lost Along the Way
00:57:50.133 : 14. Two Questions
01:03:42.652 : 15. Ashes in a Can
01:06:43.666 : 16. Carter's Mountain
01:09:18.988 : 17. Temptation
01:14:11.113 : 18. I'm Not Everyone
01:16:35.925 : 19. Homecomings
01:20:54.349 : 20. Word with the Owner
01:23:23.665 : 21. Cats Beat Me to It
01:26:55.710 : 22. Find the Joy
01:32:21.536 : 23. End Credits


Name: «Пока не сыграл в ящик»
Artist: Unknown
Media Kind: Movie
HD Video: 1080р
Genre: Комедии
Release Date: 2008-03-27T07:00:00Z
Description: Оскароносные Джек Николсон и Морган Фриман снялись в комедийной драме «Пока не сыграл в ящик» режиссера Роба Райнера о трогательном и беспечном приключении, которое напоминает нам о том, что открыть радость жизни никогда не поздно. Картер и Эдвард оказались соседями по больничной палате, где у них было много времени подумать о том, какой могла бы быть их жизнь дальше... и о том, что многое в ней зависит от них самих. Несмотря на все различия, вскоре выяснилось, что есть у них две общие черты: нереализованная потребность примириться со своим прошлым и выбранными путями, а также непреодолимое желание в оставшееся время делать то, о чем всегда мечталось.
Rating: ru-movie|12+|200|
Studio: Warner Bros.
Cast: Jack Nicholson, Morgan Freeman, Sean P. Hayes, Rob Morrow
Director: Unknown
Producers: Rob Reiner
Screenwriters: Justin Zackham
Copyright: © 2007 Warner Bros. Entertainment, Inc.
content ID: 517503871
iTunes Country: 143469

Скриншоты:


Все одноименные релизы в Клубе
Время раздачи: 24/7 (до появления первых 3-5 скачавших)

Релиз подготовлен для просмотра на Apple TV, iPad, iPhone, iPod Touch.
Для просмотра данного релиза на компьютере с ОС Windows рекомендуется использовать VLC media player
The.Bucket.List.2007.BDRip.1080p.NNMClub.m4v.torrent
 Торрент: Платиновая раздача  Зарегистрирован
 
Скачать


Примагнититься
 Зарегистрирован:   13 Окт 2020 10:21:29
 Размер:   12,4 GB  (
 Рейтинг:    (Голосов: 5)
 Поблагодарили:   22
 Проверка:   Оформление проверено модератором 13 Окт 2020 10:31:24
Как cкачать  ·  Как раздать  ·  Правильно оформить  ·  Поднять ратио!  

_________________
«Всё против нас, только ветер навстречу…».
🍏Apple iMac 21.5 (mid 2011) / Intel Core i5 2.7 GHz / AMD Radeon HD 6770M 512 Mb / 12GB DDR3 / Apple Trackpad, Apple Keyboard / macOS High Sierra 10.13.6 (17G13033)
Весельчак У ®
Модератор Apple
Uploader 100+
Стаж: 6 лет 10 мес.
Сообщений: 7295
Ratio: 176,209
Поблагодарили: 233057
92.04%
Откуда: От Москвы недалеко...
ussr.gif
Спасибо maxwelex за предоставленный контент

_________________
«Всё против нас, только ветер навстречу…».
🍏Apple iMac 21.5 (mid 2011) / Intel Core i5 2.7 GHz / AMD Radeon HD 6770M 512 Mb / 12GB DDR3 / Apple Trackpad, Apple Keyboard / macOS High Sierra 10.13.6 (17G13033)
Показать сообщения:   
Начать новую тему   Ответить на тему    Торрент-трекер NNM-Club -> Аудио и Видео -> Зарубежное видео HD для устройств Apple Часовой пояс: GMT + 3
Страница 1 из 1