Классический форум-трекер
canvas not supported
Нас вместе: 4 130 329

Кутёж / The Binge (2020) WEB-DL [1080p] ATV [MVO]


 
 
RSS
Начать новую тему   Ответить на тему    Торрент-трекер NNM-Club -> Аудио и Видео -> Зарубежное видео HD для устройств Apple
Автор Сообщение
Весельчак У ®
Модератор Apple
Uploader 100+
Стаж: 6 лет 10 мес.
Сообщений: 7408
Ratio: 176,064
Поблагодарили: 236452
100%
Откуда: От Москвы недалеко...
ussr.gif
Кутёж / The Binge (2020) WEB-DL [1080p] ATV
Производство: США / American High, LD Entertainment
Жанр: Комедия

Режиссер: Джереми Гарелик
Продюсер: Райан Беннетт, Мики Лиделл, Michael Schade
Актеры: Винс Вон, Скайлер Гизондо, Декстер Дарден, Эдуардо Франко, Грэйс Ван Дин, Эстебан Бенито, Эйлин Галиндо, Марта Пиекарз, Зайн Салех, Бриттани Гармс

Описание:
2032 год. Уже несколько лет в Америке запрещены алкоголь и наркотики, но раз в году наступает день, когда гражданам разрешено отрываться по полной. Усыпив родителей, два друга-старшеклассника стремятся попасть на большую вечеринку, где один из них собирается пригласить на выпускной девушку своей мечты, а по совместительству дочь строгого директора. В процессе приятели прихватывают третьего, который обещает помочь им с проходками, а в это время директор школы, сильно осуждающий всякого рода попойки, отправляется на поиски сбежавшей дочери.



Дата мировой премьеры: 28 августа 2020

Релиз от: NNMClub

Продолжительность: 01:38:01
Качество видео: WEB-DL 1080р
Перевод: Любительский многоголосый (@MUZOBOZ@)
Субтитры: Английские (SDH)

Видео: H.264, 1920x1080 (16:9), ~3800 kbps, 24.000 fps
Аудио#1: AAC, 2.0 ch, 182 Kbps - Русский MVO, @MUZOBOZ@
Аудио#2: AAC, 2.0 ch, 182 Kbps - English Original
Аудио#3: AC3, 6.0 ch, 256 Kbps - English Original

Общее
Полное имя : /Volumes/HDD/Movies/NNMClub/The.Binge.2020.WEB-DL-1080p.NNMClub.m4v
Формат : MPEG-4
Идентификатор кодека : M4V (M4V /M4A /mp42/isom)
Размер файла : 3,03 Гбайт
Продолжительность : 1 ч. 38 м.
Режим общего битрейта : Переменный
Общий поток : 4 430 Кбит/сек
Название фильма : Кутёж
Исполнитель : Jeremy Garelick
Режиссёр : Jeremy Garelick
Исполнитель : Skyler Gisondo / Dexter Darden / Eduardo Franco / Vince Vaughn / Grace Van Dien / Esteban Benito / Eileen Galindo / Marta Piekarz / Zainne Saleh / Brittany Garms / Natalie Paige Goldberg / Ian Soares / Hayes MacArthur / Ryan Joseph Long
Сценарист : Jordan VanDina
Продюсер : Mickey Liddell / Jeremy Garelick / Nicole Stojkovich / Will Phelps / Michael Schade
Исполнительный продюсер : Michael Glassman, Chris Bongirne
Студия-производитель : American High, LD Entertainment
Жанр : комедия
Тип содержимого : Short Film
Описание : 2032 год. Уже несколько лет в Америке запрещены алкоголь и наркотики, но раз в году наступает день, когда гражданам разрешено отрываться по полной. Усыпив родителей, два друга-старшеклассника стремятся попасть на большую вечеринку, где один из них…
Дата записи : UTC 2020-08-28 12:00:00
Дата кодирования : UTC 2020-10-14 11:32:27
Дата пометки : UTC 2020-10-14 11:34:37
Обложка : Yes

Видео
Идентификатор : 1
Формат : AVC
Формат/Информация : Advanced Video Codec
Профиль формата : High@L4
Настройки формата : CABAC / 4 Ref Frames
Параметр CABAC формата : Да
Параметр RefFrames формата : 4 кадра
Идентификатор кодека : avc1
Идентификатор кодека/Информация : Advanced Video Coding
Продолжительность : 1 ч. 38 м.
Битрейт : 3 800 Кбит/сек
Ширина : 1 920 пикселей
Высота : 1 080 пикселей
Соотношение сторон : 16:9
Режим частоты кадров : Переменный
Частота кадров : 24,000 кадра/сек
Минимальная частота кадров : 23,810 кадра/сек
Максимальная частота кадров : 24,390 кадра/сек
Цветовое пространство : YUV
Субдискретизация насыщенности : 4:2:0
Битовая глубина : 8 бит
Тип развёртки : Прогрессивная
Бит/(Пиксели*Кадры) : 0.076
Размер потока : 2,60 Гбайт (86%)
Язык : English
Дата кодирования : UTC 2020-10-14 11:32:27
Дата пометки : UTC 2020-10-14 11:34:36
Codec configuration box : avcC

Аудио #1
Идентификатор : 2
Формат : AAC LC
Формат/Информация : Advanced Audio Codec Low Complexity
Идентификатор кодека : mp4a-40-2
Продолжительность : 1 ч. 37 м.
Вид битрейта : Переменный
Битрейт : 182 Кбит/сек
Максимальный битрейт : 304 Кбит/сек
Каналы : 2 канала
Channel layout : L R
Частота : 48,0 КГц
Частота кадров : 46,875 кадров/сек (1024 SPF)
Метод сжатия : С потерями
Размер потока : 128 Мбайт (4%)
Язык : Russian
Default : Да
Alternate group : 1
Дата кодирования : UTC 2020-10-14 11:32:27
Дата пометки : UTC 2020-10-14 11:34:36
tagc : public.main-program-content

Аудио #2
Идентификатор : 3
Формат : AAC LC
Формат/Информация : Advanced Audio Codec Low Complexity
Идентификатор кодека : mp4a-40-2
Продолжительность : 1 ч. 38 м.
Продолжительность оригинала : 1 ч. 38 м.
Вид битрейта : Переменный
Битрейт : 182 Кбит/сек
Максимальный битрейт : 258 Кбит/сек
Каналы : 2 канала
Channel layout : L R
Частота : 48,0 КГц
Частота кадров : 46,875 кадров/сек (1024 SPF)
Метод сжатия : С потерями
Размер потока : 127 Мбайт (4%)
Размер потока оригинала : 127 Мбайт (4%)
Язык : English
Default : Нет
Alternate group : 1
Дата кодирования : UTC 2020-10-14 11:32:27
Дата пометки : UTC 2020-10-14 11:34:12
Fallback From : 4
tagc : public.main-program-content

Аудио #3
Идентификатор : 4
Формат : AC-3
Формат/Информация : Audio Coding 3
Коммерческое название : Dolby Digital
Идентификатор кодека : ac-3
Продолжительность : 1 ч. 38 м.
Вид битрейта : Постоянный
Битрейт : 256 Кбит/сек
Каналы : 6 каналов
Channel layout : L R C LFE Ls Rs
Частота : 48,0 КГц
Частота кадров : 31,250 кадров/сек (1536 SPF)
Метод сжатия : С потерями
Размер потока : 179 Мбайт (6%)
Язык : English
Service kind : Complete Main
Default : Нет
Alternate group : 1
Дата кодирования : UTC 2020-10-14 11:32:27
Дата пометки : UTC 2020-10-14 11:34:12
Fallback To : 3
tagc : public.main-program-content

Текст
Идентификатор : 5
Формат : Timed Text
Режим смешивания : sbtl
Идентификатор кодека : tx3g
Продолжительность : 1 ч. 37 м.
Вид битрейта : Переменный
Битрейт : 154 бит/сек
Размер потока : 111 Кбайт (0%)
Язык : English
Default : Да
Forced : Нет
Alternate group : 2
Дата кодирования : UTC 2020-10-14 11:32:27
Дата пометки : UTC 2020-10-14 11:34:36
tagc : public.accessibility.transcribes-spoken-dialog


Name: Кутёж
Artist: Jeremy Garelick
Media Kind: Movie
HD Video: 1080р
Genre: комедия
Release Date: 2020-08-28T12:00:00Z
Description: 2032 год. Уже несколько лет в Америке запрещены алкоголь и наркотики, но раз в году наступает день, когда гражданам разрешено отрываться по полной. Усыпив родителей, два друга-старшеклассника стремятся попасть на большую вечеринку, где один из них…
Studio: American High, LD Entertainment
Cast: Skyler Gisondo, Dexter Darden, Eduardo Franco, Vince Vaughn, Grace Van Dien, Esteban Benito, Eileen Galindo, Marta Piekarz, Zainne Saleh, Brittany Garms, Natalie Paige Goldberg, Ian Soares, Hayes MacArthur, Ryan Joseph Long
Director: Jeremy Garelick
Producers: Mickey Liddell, Jeremy Garelick, Nicole Stojkovich, Will Phelps, Michael Schade
Executive Producer: Michael Glassman, Chris Bongirne
Screenwriters: Jordan VanDina

Скриншоты:


Все одноименные релизы в Клубе
Время раздачи: 24/7 (до появления первых 3-5 скачавших)

Релиз подготовлен для просмотра на Apple TV, iPad, iPhone, iPod Touch.
Для просмотра данного релиза на компьютере с ОС Windows рекомендуется использовать VLC media player
The.Binge.2020.WEB-DL-1080p.NNMClub.m4v.torrent
 Торрент: Платиновая раздача  Зарегистрирован
 
Скачать


Примагнититься
 Зарегистрирован:   14 Окт 2020 14:42:45
 Размер:   3,03 GB  (
 Рейтинг:    (Голосов: 5)
 Поблагодарили:   42
 Проверка:   Оформление проверено модератором 15 Окт 2020 06:36:38
Как cкачать  ·  Как раздать  ·  Правильно оформить  ·  Поднять ратио!  

_________________
«Всё против нас, только ветер навстречу…».
🍏Apple iMac 21.5 (mid 2011) / Intel Core i5 2.7 GHz / AMD Radeon HD 6770M 512 Mb / 12GB DDR3 / Apple Trackpad, Apple Keyboard / macOS High Sierra 10.13.6 (17G13033)
Показать сообщения:   
Начать новую тему   Ответить на тему    Торрент-трекер NNM-Club -> Аудио и Видео -> Зарубежное видео HD для устройств Apple Часовой пояс: GMT + 3
Страница 1 из 1