Классический форум-трекер
canvas not supported
Нас вместе: 4 130 325

Подземка / Subway (1985) BDRip [1080p] ATV [MVO]


 
 
RSS
Начать новую тему   Ответить на тему    Торрент-трекер NNM-Club -> Аудио и Видео -> Зарубежное видео HD для устройств Apple
Автор Сообщение
Весельчак У ®
Модератор Apple
Uploader 100+
Стаж: 6 лет 10 мес.
Сообщений: 7408
Ratio: 176,063
Поблагодарили: 236447
100%
Откуда: От Москвы недалеко...
ussr.gif
Подземка / Subway (1985) BDRip [1080p] ATV«An underground story where lives intertwine»
Производство: Франция / Les Films du Loup, TSF Productions, Gaumont
Жанр: Триллер

Режиссер: Люк Бессон
Продюсер: Люк Бессон, Франсуа Ружьери, Луи Дюшен
Актеры: Изабель Аджани, Кристофер Ламберт, Ришар Боринже, Мишель Галабрю, Жан-Юг Англад, Жан Буиз, Жан-Пьер Бакри, Жан-Клод Лека, Константин Александров, Изабель Садоян, Патрик Перез, Жан Рено

Описание:
Циник, вор и нарушитель общественного спокойствия Фред промышляет взломом сейфов и прочим криминалом. Однажды в его руки попадают документы, при помощи которых он получает возможность шантажировать загадочную красавицу Хелену. За документами тут же начинают охотиться их владельцы. Скрываясь от своих преследователей, герой прячется в метро, где знакомится со странной субкультурой живущих там людей, и где с ним происходят совершенно неожиданные истории.



Возраст: 18+ (зрителям, достигшим 18 лет)
Рейтинг MPAA: R (лицам до 17 лет обязательно присутствие взрослого)

Релиз от: NNMClub

Продолжительность: 01:42:20
Качество видео: BDRip 1080р
Перевод: Профессиональный многоголосый, профессиональный двухголосый, авторский одноголосый
Субтитры: Русские, английские (вшитые, отключаемые)

Видео: H.264, 1920x816 (2,35:1), ~13,9 Mbps, 24.000 fps
Аудио#1: AAC, 2.0 ch, 265 Kbps - Русский MVO, Амальгама
Аудио#2: AAC, 2.0 ch, 265 Kbps - Русский MVO, Кармен Фильм
Аудио#3: AAC, 2.0 ch, 265 Kbps - Русский DVO, Видеосервис
Аудио#4: AAC, 2.0 ch, 265 Kbps - Русский MVO, НТВ+
Аудио#5: AAC, 2.0 ch, 270 Kbps - Русский AVO, А. Багичев
Аудио#6: AAC, 2.0 ch, 271 Kbps - AVO, Г. Либергал
Аудио#7: AAC, 2.0 ch, 272 Kbps - AVO, Ю. Живов
Аудио#8: AAC, 2.0 ch, 271 Kbps - AVO, Л. Володарский
Аудио#9: AAC, 2.0 ch, 265 Kbps - DVO, Selena International
Аудио#10: AAC, 2.0 ch, 265 Kbps - French Original

Общее
Полное имя : /Volumes/HDD/Dropbox/Subway.1985.BDRip.1080p.NNMClub.m4v
Формат : MPEG-4
Идентификатор кодека : M4V (M4V /M4A /mp42/isom)
Размер файла : 11,8 Гбайт
Продолжительность : 1 ч. 42 м.
Режим общего битрейта : Переменный
Общий поток : 16,5 Мбит/сек
Название фильма : Подземка
Исполнитель : Luc Besson
Композитор : Éric Serra
Режиссёр : Luc Besson
Исполнитель : Isabelle Adjani / Christopher Lambert / Richard Bohringer / Michel Galabru / Jean-Hugues Anglade / Jean Reno / Jean-Pierre Bacri / Jean Bouise / Éric Serra / Alain Guillard / Jean-Claude Lecas / Pierre-Ange Le Pogam / Isabelle Sadoyan / Brigitte Chamarande / Constantin Alexandrov / Benoît Régent / Michel Montanary / Guy Laporte / Basile de Bodt / Vincent Skimenti / Patrick Pérez / Maria Vincent / Francis Lemonnier / Arthur Simms / Michel D'Oz / Jimmy Blanche / Christian Gomba / Bernard Pollak / Jacky Jakubowicz / Arnold Walter / Martine Rapin / Catherine Luton / Pierre Carrive / Jean-Michel Castanié / Francois Guerre-Berthelot / Eric Proville / Jean-Luc Miesch / José Otero / Françoise Ruggieri / Dominique Hennequin / Magali Guidasci / Roselyne Brunet / Lucien Fleurot / Etienne Chicot / Luc Besson / Jerry Di Giacomo / Steve Gadler / Edward Marcus / Claude Melki / Liza Ross / Jimmy Shuman / Jesse Joe Walsh / Allan Wenger
Сценарист : Luc Besson / Luc Besson / Luc Besson / Marc Perrier / Marc Perrier / Pierre Jolivet / Alain Le Henry / Sophie Schmit
Продюсер : Luc Besson / François Ruggieri
Исполнительный продюсер : Louis Duchesne
Студия-производитель : Gaumont, Les Films du Loup, TSF Productions, TF1 Films Production
Жанр : боевик, триллер
Тип содержимого : Short Film
Описание : Циник, вор и нарушитель общественного спокойствия Фред промышляет взломом сейфов и прочим криминалом. Однажды в его руки попадают документы, при помощи которых он получает возможность шантажировать загадочную красавицу Хелену. За документами тут же…
Дата записи : UTC 1985-04-10 12:00:00
Дата кодирования : UTC 2020-10-15 06:40:22
Дата пометки : UTC 2020-10-15 06:51:23
Обложка : Yes

Видео #1
Идентификатор : 1
Формат : AVC
Формат/Информация : Advanced Video Codec
Профиль формата : High@L4.1
Настройки формата : CABAC / 5 Ref Frames
Параметр CABAC формата : Да
Параметр RefFrames формата : 5 кадров
Идентификатор кодека : avc1
Идентификатор кодека/Информация : Advanced Video Coding
Продолжительность : 1 ч. 42 м.
Битрейт : 13,9 Мбит/сек
Ширина : 1 920 пикселей
Высота : 816 пикселей
Соотношение сторон : 2,35:1
Режим частоты кадров : Переменный
Частота кадров : 24,000 кадра/сек
Минимальная частота кадров : 23,810 кадра/сек
Максимальная частота кадров : 24,390 кадра/сек
Цветовое пространство : YUV
Субдискретизация насыщенности : 4:2:0
Битовая глубина : 8 бит
Тип развёртки : Прогрессивная
Бит/(Пиксели*Кадры) : 0.369
Размер потока : 9,91 Гбайт (84%)
Библиотека кодирования : x264 core 161 r3018 db0d417
Настройки программы : cabac=1 / ref=5 / deblock=1:-3:-3 / analyse=0x3:0x133 / me=umh / subme=11 / psy=1 / psy_rd=1.00:0.00 / mixed_ref=1 / me_range=32 / chroma_me=1 / trellis=2 / 8x8dct=1 / cqm=0 / deadzone=21,11 / fast_pskip=0 / chroma_qp_offset=-2 / threads=12 / lookahead_threads=1 / sliced_threads=0 / nr=0 / decimate=0 / interlaced=0 / bluray_compat=0 / constrained_intra=0 / bframes=11 / b_pyramid=2 / b_adapt=2 / b_bias=0 / direct=3 / weightb=1 / open_gop=0 / weightp=2 / keyint=240 / keyint_min=24 / scenecut=40 / intra_refresh=0 / rc=2pass / mbtree=0 / bitrate=13860 / ratetol=1.0 / qcomp=0.60 / qpmin=0 / qpmax=69 / qpstep=4 / cplxblur=20.0 / qblur=0.5 / ip_ratio=1.20 / pb_ratio=1.22 / aq=1:1.00
Язык : French
Дата кодирования : UTC 2020-10-15 06:40:22
Дата пометки : UTC 2020-10-15 06:51:03
Menus : 16,17
Codec configuration box : avcC

Видео #2
Идентификатор : 17
Формат : JPEG
Идентификатор кодека : jpeg
Продолжительность : 1 ч. 42 м.
Вид битрейта : Переменный
Битрейт : 670 бит/сек
Ширина : 640 пикселей
Высота : 272 пикселя
Соотношение сторон : 2,35:1
Режим частоты кадров : Переменный
Частота кадров : 0,002 кадр/сек
Минимальная частота кадров : 0,001 кадр/сек
Максимальная частота кадров : 0,005 кадр/сек
Цветовое пространство : YUV
Субдискретизация насыщенности : 4:2:0
Битовая глубина : 8 бит
Метод сжатия : С потерями
Бит/(Пиксели*Кадры) : 1.924
Размер потока : 490 Кбайт (0%)
Язык : French
Default : Нет
Дата кодирования : UTC 2020-10-15 06:51:21
Дата пометки : UTC 2020-10-15 06:51:21
Menu For : 1
ColorSpace_ICC : RGB

Аудио #1
Идентификатор : 2
Формат : AAC LC
Формат/Информация : Advanced Audio Codec Low Complexity
Идентификатор кодека : mp4a-40-2
Продолжительность : 1 ч. 42 м.
Вид битрейта : Переменный
Битрейт : 265 Кбит/сек
Максимальный битрейт : 484 Кбит/сек
Каналы : 2 канала
Channel layout : L R
Частота : 48,0 КГц
Частота кадров : 46,875 кадров/сек (1024 SPF)
Метод сжатия : С потерями
Размер потока : 193 Мбайт (2%)
Язык : Russian
Default : Да
Alternate group : 1
Дата кодирования : UTC 2020-10-15 06:40:22
Дата пометки : UTC 2020-10-15 06:51:03
tagc : public.main-program-content

Аудио #2
Идентификатор : 3
Формат : AAC LC
Формат/Информация : Advanced Audio Codec Low Complexity
Идентификатор кодека : mp4a-40-2
Продолжительность : 1 ч. 42 м.
Вид битрейта : Переменный
Битрейт : 265 Кбит/сек
Максимальный битрейт : 409 Кбит/сек
Каналы : 2 канала
Channel layout : L R
Частота : 48,0 КГц
Частота кадров : 46,875 кадров/сек (1024 SPF)
Метод сжатия : С потерями
Размер потока : 193 Мбайт (2%)
Язык : Russian
Default : Нет
Alternate group : 1
Дата кодирования : UTC 2020-10-15 06:40:22
Дата пометки : UTC 2020-10-15 06:51:03
tagc : public.auxiliary-content

Аудио #3
Идентификатор : 4
Формат : AAC LC
Формат/Информация : Advanced Audio Codec Low Complexity
Идентификатор кодека : mp4a-40-2
Продолжительность : 1 ч. 42 м.
Вид битрейта : Переменный
Битрейт : 265 Кбит/сек
Максимальный битрейт : 484 Кбит/сек
Каналы : 2 канала
Channel layout : L R
Частота : 48,0 КГц
Частота кадров : 46,875 кадров/сек (1024 SPF)
Метод сжатия : С потерями
Размер потока : 193 Мбайт (2%)
Язык : Russian
Default : Нет
Alternate group : 1
Дата кодирования : UTC 2020-10-15 06:40:22
Дата пометки : UTC 2020-10-15 06:51:03
tagc : public.auxiliary-content

Аудио #4
Идентификатор : 5
Формат : AAC LC
Формат/Информация : Advanced Audio Codec Low Complexity
Идентификатор кодека : mp4a-40-2
Продолжительность : 1 ч. 42 м.
Вид битрейта : Переменный
Битрейт : 265 Кбит/сек
Максимальный битрейт : 352 Кбит/сек
Каналы : 2 канала
Channel layout : L R
Частота : 48,0 КГц
Частота кадров : 46,875 кадров/сек (1024 SPF)
Метод сжатия : С потерями
Размер потока : 194 Мбайт (2%)
Язык : Russian
Default : Нет
Alternate group : 1
Дата кодирования : UTC 2020-10-15 06:40:22
Дата пометки : UTC 2020-10-15 06:51:03
tagc : public.auxiliary-content

Аудио #5
Идентификатор : 6
Формат : AAC LC
Формат/Информация : Advanced Audio Codec Low Complexity
Идентификатор кодека : mp4a-40-2
Продолжительность : 1 ч. 42 м.
Вид битрейта : Переменный
Битрейт : 270 Кбит/сек
Максимальный битрейт : 386 Кбит/сек
Каналы : 2 канала
Channel layout : L R
Частота : 48,0 КГц
Частота кадров : 46,875 кадров/сек (1024 SPF)
Метод сжатия : С потерями
Размер потока : 198 Мбайт (2%)
Язык : Russian
Default : Нет
Alternate group : 1
Дата кодирования : UTC 2020-10-15 06:40:22
Дата пометки : UTC 2020-10-15 06:51:03
tagc : public.auxiliary-content

Аудио #6
Идентификатор : 7
Формат : AAC LC
Формат/Информация : Advanced Audio Codec Low Complexity
Идентификатор кодека : mp4a-40-2
Продолжительность : 1 ч. 42 м.
Вид битрейта : Переменный
Битрейт : 271 Кбит/сек
Максимальный битрейт : 385 Кбит/сек
Каналы : 2 канала
Channel layout : L R
Частота : 48,0 КГц
Частота кадров : 46,875 кадров/сек (1024 SPF)
Метод сжатия : С потерями
Размер потока : 198 Мбайт (2%)
Язык : Russian
Default : Нет
Alternate group : 1
Дата кодирования : UTC 2020-10-15 06:40:22
Дата пометки : UTC 2020-10-15 06:51:03
tagc : public.auxiliary-content

Аудио #7
Идентификатор : 8
Формат : AAC LC
Формат/Информация : Advanced Audio Codec Low Complexity
Идентификатор кодека : mp4a-40-2
Продолжительность : 1 ч. 42 м.
Вид битрейта : Переменный
Битрейт : 272 Кбит/сек
Максимальный битрейт : 398 Кбит/сек
Каналы : 2 канала
Channel layout : L R
Частота : 48,0 КГц
Частота кадров : 46,875 кадров/сек (1024 SPF)
Метод сжатия : С потерями
Размер потока : 199 Мбайт (2%)
Язык : Russian
Default : Нет
Alternate group : 1
Дата кодирования : UTC 2020-10-15 06:40:22
Дата пометки : UTC 2020-10-15 06:51:03
tagc : public.auxiliary-content

Аудио #8
Идентификатор : 9
Формат : AAC LC
Формат/Информация : Advanced Audio Codec Low Complexity
Идентификатор кодека : mp4a-40-2
Продолжительность : 1 ч. 42 м.
Вид битрейта : Переменный
Битрейт : 271 Кбит/сек
Максимальный битрейт : 387 Кбит/сек
Каналы : 2 канала
Channel layout : L R
Частота : 48,0 КГц
Частота кадров : 46,875 кадров/сек (1024 SPF)
Метод сжатия : С потерями
Размер потока : 198 Мбайт (2%)
Язык : Russian
Default : Нет
Alternate group : 1
Дата кодирования : UTC 2020-10-15 06:40:22
Дата пометки : UTC 2020-10-15 06:51:03
tagc : public.auxiliary-content

Аудио #9
Идентификатор : 10
Формат : AAC LC
Формат/Информация : Advanced Audio Codec Low Complexity
Идентификатор кодека : mp4a-40-2
Продолжительность : 1 ч. 42 м.
Вид битрейта : Переменный
Битрейт : 265 Кбит/сек
Максимальный битрейт : 494 Кбит/сек
Каналы : 2 канала
Channel layout : L R
Частота : 48,0 КГц
Частота кадров : 46,875 кадров/сек (1024 SPF)
Метод сжатия : С потерями
Размер потока : 193 Мбайт (2%)
Язык : Russian
Default : Нет
Alternate group : 1
Дата кодирования : UTC 2020-10-15 06:40:22
Дата пометки : UTC 2020-10-15 06:51:03
tagc : public.auxiliary-content

Аудио #10
Идентификатор : 11
Формат : AAC LC
Формат/Информация : Advanced Audio Codec Low Complexity
Идентификатор кодека : mp4a-40-2
Продолжительность : 1 ч. 42 м.
Вид битрейта : Переменный
Битрейт : 265 Кбит/сек
Максимальный битрейт : 380 Кбит/сек
Каналы : 2 канала
Channel layout : L R
Частота : 48,0 КГц
Частота кадров : 46,875 кадров/сек (1024 SPF)
Метод сжатия : С потерями
Размер потока : 195 Мбайт (2%)
Язык : French
Default : Нет
Alternate group : 1
Дата кодирования : UTC 2020-10-15 06:40:22
Дата пометки : UTC 2020-10-15 06:51:03
tagc : public.main-program-content

Текст #1
Идентификатор : 12
Формат : Timed Text
Режим смешивания : sbtl
Идентификатор кодека : tx3g
Продолжительность : 1 ч. 36 м.
Вид битрейта : Переменный
Битрейт : 55 бит/сек
Размер потока : 39,4 Кбайт (0%)
Язык : Russian
Default : Да
Forced : Нет
Alternate group : 2
Дата кодирования : UTC 2020-10-15 06:40:22
Дата пометки : UTC 2020-10-15 06:51:03
tagc : public.main-program-content

Текст #2
Идентификатор : 13
Формат : Timed Text
Режим смешивания : sbtl
Идентификатор кодека : tx3g
Продолжительность : 1 ч. 36 м.
Вид битрейта : Переменный
Битрейт : 48 бит/сек
Размер потока : 33,8 Кбайт (0%)
Язык : Russian
Default : Нет
Forced : Нет
Alternate group : 2
Дата кодирования : UTC 2020-10-15 06:40:22
Дата пометки : UTC 2020-10-15 06:51:03
tagc : public.auxiliary-content

Текст #3
Идентификатор : 14
Формат : Timed Text
Режим смешивания : sbtl
Идентификатор кодека : tx3g
Продолжительность : 1 ч. 42 м.
Вид битрейта : Переменный
Битрейт : 51 бит/сек
Размер потока : 38,3 Кбайт (0%)
Язык : Russian
Default : Нет
Forced : Нет
Alternate group : 2
Дата кодирования : UTC 2020-10-15 06:40:22
Дата пометки : UTC 2020-10-15 06:51:03
tagc : public.auxiliary-content

Текст #4
Идентификатор : 15
Формат : Timed Text
Режим смешивания : sbtl
Идентификатор кодека : tx3g
Продолжительность : 1 ч. 36 м.
Вид битрейта : Переменный
Битрейт : 25 бит/сек
Размер потока : 17,7 Кбайт (0%)
Язык : English
Default : Нет
Forced : Нет
Alternate group : 2
Дата кодирования : UTC 2020-10-15 06:40:22
Дата пометки : UTC 2020-10-15 06:51:03
tagc : public.main-program-content

Меню
Идентификатор : 16
Идентификатор кодека : text
Продолжительность : 1 ч. 42 м.
Язык : English
Дата кодирования : UTC 2020-10-15 06:51:03
Дата пометки : UTC 2020-10-15 06:51:03
Вид битрейта : CBR
Menu For : 1
00:00:00.000 : Chapter 01
00:07:56.291 : Chapter 02
00:17:20.500 : Chapter 03
00:26:27.916 : Chapter 04
00:35:53.625 : Chapter 05
00:44:32.458 : Chapter 06
00:53:11.500 : Chapter 07
00:59:44.125 : Chapter 08
01:11:41.750 : Chapter 09
01:18:51.875 : Chapter 10
01:29:15.291 : Chapter 11
01:32:34.125 : Chapter 12
Вид битрейта : Постоянный


Name: Подземка
Artist: Luc Besson
Media Kind: 9
HD Video: 2
Genre: боевик, триллер
Release Date: 1985-04-10T12:00:00Z
Description: Циник, вор и нарушитель общественного спокойствия Фред промышляет взломом сейфов и прочим криминалом. Однажды в его руки попадают документы, при помощи которых он получает возможность шантажировать загадочную красавицу Хелену. За документами тут же…
Studio: Gaumont, Les Films du Loup, TSF Productions, TF1 Films Production
Cast: Isabelle Adjani, Christopher Lambert, Richard Bohringer, Michel Galabru, Jean-Hugues Anglade, Jean Reno, Jean-Pierre Bacri, Jean Bouise, Éric Serra, Alain Guillard, Jean-Claude Lecas, Pierre-Ange Le Pogam, Isabelle Sadoyan, Brigitte Chamarande, Constantin Alexandrov, Benoît Régent, Michel Montanary, Guy Laporte, Basile de Bodt, Vincent Skimenti, Patrick Pérez, Maria Vincent, Francis Lemonnier, Arthur Simms, Michel D'Oz, Jimmy Blanche, Christian Gomba, Bernard Pollak, Jacky Jakubowicz, Arnold Walter, Martine Rapin, Catherine Luton, Pierre Carrive, Jean-Michel Castanié, Francois Guerre-Berthelot, Eric Proville, Jean-Luc Miesch, José Otero, Françoise Ruggieri, Dominique Hennequin, Magali Guidasci, Roselyne Brunet, Lucien Fleurot, Etienne Chicot, Luc Besson, Jerry Di Giacomo, Steve Gadler, Edward Marcus, Claude Melki, Liza Ross, Jimmy Shuman, Jesse Joe Walsh, Allan Wenger
Director: Luc Besson
Producers: Luc Besson, François Ruggieri
Executive Producer: Louis Duchesne
Screenwriters: Luc Besson, Luc Besson, Luc Besson, Marc Perrier, Marc Perrier, Pierre Jolivet, Alain Le Henry, Sophie Schmit
Composer: Éric Serra

Скриншоты:


Все одноименные релизы в Клубе
Время раздачи: 24/7 (до появления первых 3-5 скачавших)

Релиз подготовлен для просмотра на Apple TV, iPad, iPhone, iPod Touch.
Для просмотра данного релиза на компьютере с ОС Windows рекомендуется использовать VLC media player
Subway.1985.BDRip.1080p.NNMClub.m4v.torrent
 Торрент: Платиновая раздача  Зарегистрирован
 
Скачать


Примагнититься
 Зарегистрирован:   15 Окт 2020 10:34:35
 Размер:   11,8 GB  (
 Рейтинг:    (Голосов: 3)
 Поблагодарили:   23
 Проверка:   Оформление проверено модератором 15 Окт 2020 16:37:44
Как cкачать  ·  Как раздать  ·  Правильно оформить  ·  Поднять ратио!  

_________________
«Всё против нас, только ветер навстречу…».
🍏Apple iMac 21.5 (mid 2011) / Intel Core i5 2.7 GHz / AMD Radeon HD 6770M 512 Mb / 12GB DDR3 / Apple Trackpad, Apple Keyboard / macOS High Sierra 10.13.6 (17G13033)
Весельчак У ®
Модератор Apple
Uploader 100+
Стаж: 6 лет 10 мес.
Сообщений: 7408
Ratio: 176,063
Поблагодарили: 236447
100%
Откуда: От Москвы недалеко...
ussr.gif
Благодарю V_ad за предоставленный материал

_________________
«Всё против нас, только ветер навстречу…».
🍏Apple iMac 21.5 (mid 2011) / Intel Core i5 2.7 GHz / AMD Radeon HD 6770M 512 Mb / 12GB DDR3 / Apple Trackpad, Apple Keyboard / macOS High Sierra 10.13.6 (17G13033)
deomindmitriy
Стаж: 1 год 10 мес.
Сообщений: 22
Ratio: 3,742
73.58%
nnm-club.gif
как то смотрел , не понял про что фильм . Щас описание прочитал боле менее понятно стало ))
Показать сообщения:   
Начать новую тему   Ответить на тему    Торрент-трекер NNM-Club -> Аудио и Видео -> Зарубежное видео HD для устройств Apple Часовой пояс: GMT + 3
Страница 1 из 1