Классический форум-трекер
canvas not supported
Нас вместе: 4 130 519

Отклонение / The Swerve (2018) WEB-DL [1080p] ATV [AVO]


 
 
RSS
Начать новую тему   Ответить на тему    Торрент-трекер NNM-Club -> Аудио и Видео -> Зарубежное видео HD для устройств Apple
Автор Сообщение
Весельчак У ®
Модератор Apple
Uploader 100+
Стаж: 6 лет 10 мес.
Сообщений: 7425
Ratio: 176,312
Поблагодарили: 236969
100%
Откуда: От Москвы недалеко...
ussr.gif
Отклонение / The Swerve (2018) WEB-DL [1080p] ATV
Производство: США / Spark Chamber
Жанр: Драма

Режиссер: Дин Капсалис
Продюсер: Kathryn J. Hatam, Tommy Minnix
Актеры: Азура Скай, Брайс Пинкэм, Эшли Белл, Зак Рэнд, Дебора Хедуолл, Дэн Дэйли, Дэйсон Гаптон, Линдси Джэксон

Описание:
У Холли, кажется, есть все: двое детей, хороший дом, работа учителя и муж-карьерист. Но оказывается, что в её мире всё не так. Бессонница. И странные сны после лекарств. А их можно назвать снами? И еще мышь, которая появляется в ее доме. Из-за этого всего Холли теряет контроль над собой.



Дата мировой премьеры: 10 ноября 2018

Релиз от: NNMClub

Продолжительность: 01:35:21
Качество видео: WEB-DL 1080р
Перевод: Авторский одноголосый (А. Важенин)
Субтитры: Английские (вшитые, отключаемые)

Видео: H.264, 1920x800 (2.40:1), ~6534 kbps, 23.976 fps
Аудио#1: AAC, 2.0 ch, 295 Kbps - Русский AVO, А. Важенин
Аудио#2: AAC, 2.0 ch, 294 Kbps - English Original
Аудио#3: AC3, 6.0 ch, 640 Kbps - Русский AVO, А. Важенин
Аудио#4: AC3, 6.0 ch, 640 Kbps - English Original

Общее
Полное имя : /Volumes/HDD/Movies/NNMClub/The.Swerve.2019.WEB-DL..1080рNNMClub.m4v
Формат : MPEG-4
Идентификатор кодека : M4V (M4V /M4A /mp42/isom)
Размер файла : 5,56 Гбайт
Продолжительность : 1 ч. 35 м.
Режим общего битрейта : Переменный
Общий поток : 8 351 Кбит/сек
Название фильма : Отклонение
Исполнитель : Dean Kapsalis
Композитор : Mark Korven
Режиссёр : Dean Kapsalis
Исполнитель : Azura Skye / Bryce Pinkham / Ashley Bell / Zach Rand / Deborah Hedwall / Dan Daily / Taen Phillips / Liam Seib / Jenna Marie Hess / Chadwick Davilsaint / Lindsay Jackson / Jason Gupton / Maikel Ramic / Josh England / Gretchen Portelles / Kristine Sorenson
Сценарист : Dean Kapsalis
Продюсер : Tommy Minnix
Студия-производитель : Spark Chamber
Жанр : триллер, драма, ужасы
Тип содержимого : Short Film
Описание : У Холли, кажется, есть все: двое детей, хороший дом, работа учителя и муж-карьерист. Но оказывается, что в её мире всё не так. Бессонница. И странные сны после лекарств. А их можно назвать снами? И еще мышь, которая появляется в ее доме. Из-за этого…
Дата записи : UTC 2019-06-15 12:00:00
Дата кодирования : UTC 2020-10-15 20:53:43
Дата пометки : UTC 2020-10-15 20:57:40
Обложка : Yes

Видео
Идентификатор : 1
Формат : AVC
Формат/Информация : Advanced Video Codec
Профиль формата : High@L4
Настройки формата : CABAC / 4 Ref Frames
Параметр CABAC формата : Да
Параметр RefFrames формата : 4 кадра
Идентификатор кодека : avc1
Идентификатор кодека/Информация : Advanced Video Coding
Продолжительность : 1 ч. 35 м.
Вид битрейта : Постоянный
Битрейт : 6 534 Кбит/сек
Номинальный битрейт : 10 000 Кбит/сек
Ширина : 1 920 пикселей
Высота : 800 пикселей
Соотношение сторон : 2,40:1
Режим частоты кадров : Переменный
Частота кадров : 23,976 (24000/1001) кадра/сек
Минимальная частота кадров : 23,810 кадра/сек
Максимальная частота кадров : 24,390 кадра/сек
Цветовое пространство : YUV
Субдискретизация насыщенности : 4:2:0
Битовая глубина : 8 бит
Тип развёртки : Прогрессивная
Бит/(Пиксели*Кадры) : 0.177
Размер потока : 4,35 Гбайт (78%)
Язык : English
Дата кодирования : UTC 2020-10-15 20:53:43
Дата пометки : UTC 2020-10-15 20:57:39
Цветовой диапазон : Limited
Основные цвета : BT.709
Характеристики трансфера : BT.709
Коэффициенты матрицы : BT.709
Codec configuration box : avcC

Аудио #1
Идентификатор : 2
Формат : AAC LC
Формат/Информация : Advanced Audio Codec Low Complexity
Идентификатор кодека : mp4a-40-2
Продолжительность : 1 ч. 35 м.
Вид битрейта : Переменный
Битрейт : 265 Кбит/сек
Максимальный битрейт : 490 Кбит/сек
Каналы : 2 канала
Channel layout : L R
Частота : 48,0 КГц
Частота кадров : 46,875 кадров/сек (1024 SPF)
Метод сжатия : С потерями
Размер потока : 180 Мбайт (3%)
Язык : Russian
Default : Да
Alternate group : 1
Дата кодирования : UTC 2020-10-15 20:53:43
Дата пометки : UTC 2020-10-15 20:57:39
Fallback From : 4
tagc : public.main-program-content

Аудио #2
Идентификатор : 3
Формат : AAC LC
Формат/Информация : Advanced Audio Codec Low Complexity
Идентификатор кодека : mp4a-40-2
Продолжительность : 1 ч. 35 м.
Продолжительность оригинала : 1 ч. 35 м.
Вид битрейта : Переменный
Битрейт : 265 Кбит/сек
Максимальный битрейт : 496 Кбит/сек
Каналы : 2 канала
Channel layout : L R
Частота : 48,0 КГц
Частота кадров : 46,875 кадров/сек (1024 SPF)
Метод сжатия : С потерями
Размер потока : 180 Мбайт (3%)
Размер потока оригинала : 180 Мбайт (3%)
Язык : English
Default : Нет
Alternate group : 1
Дата кодирования : UTC 2020-10-15 20:53:43
Дата пометки : UTC 2020-10-15 20:55:33
Fallback From : 5
tagc : public.main-program-content

Аудио #3
Идентификатор : 4
Формат : AC-3
Формат/Информация : Audio Coding 3
Коммерческое название : Dolby Digital
Идентификатор кодека : ac-3
Продолжительность : 1 ч. 35 м.
Вид битрейта : Постоянный
Битрейт : 640 Кбит/сек
Каналы : 6 каналов
Channel layout : L R C LFE Ls Rs
Частота : 48,0 КГц
Частота кадров : 31,250 кадров/сек (1536 SPF)
Метод сжатия : С потерями
Размер потока : 436 Мбайт (8%)
Язык : Russian
Service kind : Complete Main
Default : Inherited From: 2
Alternate group : 1
Дата кодирования : UTC 2020-10-15 20:53:43
Дата пометки : UTC 2020-10-15 20:57:39
Fallback To : 2
tagc : public.main-program-content

Аудио #4
Идентификатор : 5
Формат : AC-3
Формат/Информация : Audio Coding 3
Коммерческое название : Dolby Digital
Идентификатор кодека : ac-3
Продолжительность : 1 ч. 35 м.
Вид битрейта : Постоянный
Битрейт : 640 Кбит/сек
Каналы : 6 каналов
Channel layout : L R C LFE Ls Rs
Частота : 48,0 КГц
Частота кадров : 31,250 кадров/сек (1536 SPF)
Метод сжатия : С потерями
Размер потока : 436 Мбайт (8%)
Язык : English
Service kind : Complete Main
Default : Нет
Alternate group : 1
Дата кодирования : UTC 2020-10-15 20:53:43
Дата пометки : UTC 2020-10-15 20:55:32
Fallback To : 3
tagc : public.main-program-content

Текст
Идентификатор : 6
Формат : Timed Text
Режим смешивания : sbtl
Идентификатор кодека : tx3g
Продолжительность : 1 ч. 29 м.
Вид битрейта : Переменный
Битрейт : 28 бит/сек
Размер потока : 18,5 Кбайт (0%)
Язык : English
Default : Да
Forced : Нет
Alternate group : 2
Дата кодирования : UTC 2020-10-15 20:53:43
Дата пометки : UTC 2020-10-15 20:57:39
tagc : public.main-program-content


Name: Отклонение
Artist: Dean Kapsalis
Media Kind: Movie
HD Video: 1080р
Genre: триллер, драма, ужасы
Release Date: 2019-06-15T12:00:00Z
Description: У Холли, кажется, есть все: двое детей, хороший дом, работа учителя и муж-карьерист. Но оказывается, что в её мире всё не так. Бессонница. И странные сны после лекарств. А их можно назвать снами? И еще мышь, которая появляется в ее доме. Из-за этого…
Studio: Spark Chamber
Cast: Azura Skye, Bryce Pinkham, Ashley Bell, Zach Rand, Deborah Hedwall, Dan Daily, Taen Phillips, Liam Seib, Jenna Marie Hess, Chadwick Davilsaint, Lindsay Jackson, Jason Gupton, Maikel Ramic, Josh England, Gretchen Portelles, Kristine Sorenson
Director: Dean Kapsalis
Producers: Tommy Minnix
Screenwriters: Dean Kapsalis
Composer: Mark Korven

Скриншоты:


Все одноименные релизы в Клубе
Время раздачи: 24/7 (до появления первых 3-5 скачавших)

Релиз подготовлен для просмотра на Apple TV, iPad, iPhone, iPod Touch.
Для просмотра данного релиза на компьютере с ОС Windows рекомендуется использовать VLC media player
The.Swerve.2019.WEB-DL.1080r.NNMClub.m4v.torrent
 Торрент: Платиновая раздача  Зарегистрирован
 
Скачать


Примагнититься
 Зарегистрирован:   16 Окт 2020 00:17:26
 Размер:   5,56 GB  (
 Рейтинг:    (Голосов: 0)
 Поблагодарили:   15
 Проверка:   Оформление проверено модератором 18 Окт 2020 11:16:28
Как cкачать  ·  Как раздать  ·  Правильно оформить  ·  Поднять ратио!  

_________________
«Всё против нас, только ветер навстречу…».
🍏Apple iMac 21.5 (mid 2011) / Intel Core i5 2.7 GHz / AMD Radeon HD 6770M 512 Mb / 12GB DDR3 / Apple Trackpad, Apple Keyboard / macOS High Sierra 10.13.6 (17G13033)
Весельчак У ®
Модератор Apple
Uploader 100+
Стаж: 6 лет 10 мес.
Сообщений: 7425
Ratio: 176,312
Поблагодарили: 236969
100%
Откуда: От Москвы недалеко...
ussr.gif
Спасибо BadBajo за предоставленный контент

_________________
«Всё против нас, только ветер навстречу…».
🍏Apple iMac 21.5 (mid 2011) / Intel Core i5 2.7 GHz / AMD Radeon HD 6770M 512 Mb / 12GB DDR3 / Apple Trackpad, Apple Keyboard / macOS High Sierra 10.13.6 (17G13033)
Показать сообщения:   
Начать новую тему   Ответить на тему    Торрент-трекер NNM-Club -> Аудио и Видео -> Зарубежное видео HD для устройств Apple Часовой пояс: GMT + 3
Страница 1 из 1