Классический форум-трекер
canvas not supported
Нас вместе: 4 130 826

Господин Дьявол / Il signor Diavolo (2019) BDRip [720p] ATV


 
 
RSS
Начать новую тему   Ответить на тему    Торрент-трекер NNM-Club -> Аудио и Видео -> Зарубежное видео HD для устройств Apple
Автор Сообщение
Весельчак У ®
Модератор Apple
Uploader 100+
Стаж: 6 лет 10 мес.
Сообщений: 7454
Ratio: 176,463
Поблагодарили: 237921
100%
Откуда: От Москвы недалеко...
ussr.gif
Господин Дьявол / Il signor Diavolo (2019) BDRip [720p] ATV
Производство: Италия / Direzione Generale per il Cinema, Duea Film, Ruggente Film, Rai Cinema, Ruggente Film
Жанр: Ужасы, триллер, детектив

Режиссер: Пупи Авати
Продюсер: Антонио Авати, Пупи Авати
Актеры: Габриэль Ло Джудиче, Филиппо Франкини, Чезаре Кремонини, Массимо Бонетти, Лино Каполиккьо, Кьяра Казелли, Джанни Кавина, Алессандро Абер, Андреа Ронкато, Ева Антония Гримальди

Описание:
Молодой полицейский Фурио Моменте отправляется в регион Венето, чтобы расследовать загадочное и шокирующее преступления: подросток убил одного из своих сверстников, утверждая, что он убил самого дьявола.



Дата мировой премьеры: 22 августа 2019
Дата российской премьеры: 17 сентября 2020, «Ракета Релизинг»

Релиз от: NNMClub

Продолжительность: 01:30:41
Качество видео: BDRip 720p
Перевод: Дублированный (iTunes)
Субтитры: Отсутствуют

Видео: H.264, 1280x720 (2.40:1), ~8495 kbps, 24.000 fps
Аудио#1: AAC, 2.0 ch, 197 Kbps - Русский DUB, iTunes
Аудио#2: AAC, 2.0 ch, 197 Kbps - Italiano Original
Аудио#3: AC3, 6.0 ch, 384 Kbps - Русский DUB, iTunes
Аудио#4: AC3, 6.0 ch, 640 Kbps - Italiano Original

Общее
Полное имя : /Volumes/HDD/Movies/NNMClub/Il.signor.Diavolo.2019.BDRip.720p.NNMClub.m4v
Формат : MPEG-4
Идентификатор кодека : M4V (M4V /M4A /mp42/isom)
Размер файла : 6,28 Гбайт
Продолжительность : 1 ч. 30 м.
Режим общего битрейта : Переменный
Общий поток : 9 921 Кбит/сек
Название фильма : Господин Дьявол
Исполнитель : Пупи Авати
Режиссёр : Пупи Авати
Исполнитель : Габриэль Ло Джудиче / Филиппо Франкини / Чезаре Кремонини / Массимо Бонетти / Лино Каполиккьо
Сценарист : Пупи Авати / Антонио Авати / Томмазо Авати
Продюсер : Пупи Авати / Антонио Авати
Студия-производитель : Direzione Generale Cinema, Direzione Generale per il Cinema, Duea Film, Radiotelevisione Italiana (RAI), Rai Cinema, Ruggente Film
Жанр : Ужасы
Тип содержимого : Short Film
Описание : Молодой полицейский Фурио Моменте отправляется в регион Венето, чтобы расследовать загадочное и шокирующее преступления: подросток убил одного из своих сверстников, утверждая, что он убил самого дьявола.
Дата записи : UTC 2020-10-15 07:00:00
Дата кодирования : UTC 2020-10-16 05:21:08
Дата пометки : UTC 2020-10-16 05:23:10
Авторское право : © 2020 «Ракета Релизинг»
Обложка : Yes
HDVideo : Yes
AppleStoreCountry : Russia
AppleStoreCatalogID : 1533363405
ContentRating : ru-movie|16+|375|

Видео #1
Идентификатор : 1
Формат : AVC
Формат/Информация : Advanced Video Codec
Профиль формата : High@L4.1
Настройки формата : CABAC / 9 Ref Frames
Параметр CABAC формата : Да
Параметр RefFrames формата : 9 кадров
Идентификатор кодека : avc1
Идентификатор кодека/Информация : Advanced Video Coding
Продолжительность : 1 ч. 30 м.
Битрейт : 8 495 Кбит/сек
Ширина : 1 280 пикселей
Высота : 720 пикселей
Соотношение сторон : 16:9
Режим частоты кадров : Переменный
Частота кадров : 24,000 кадра/сек
Минимальная частота кадров : 23,810 кадра/сек
Максимальная частота кадров : 24,390 кадра/сек
Цветовое пространство : YUV
Субдискретизация насыщенности : 4:2:0
Битовая глубина : 8 бит
Тип развёртки : Прогрессивная
Бит/(Пиксели*Кадры) : 0.384
Размер потока : 5,38 Гбайт (86%)
Библиотека кодирования : x264 core 158 r2984+49 6932f4a t_mod_New [0-bit@all X86_64]
Настройки программы : cabac=1 / ref=9 / deblock=1:-3:-3 / analyse=0x3:0x133 / me=umh / subme=10 / psy=1 / fade_compensate=0.00 / psy_rd=1.03:0.00 / mixed_ref=1 / me_range=32 / chroma_me=1 / trellis=2 / 8x8dct=1 / cqm=0 / deadzone=21,11 / fast_pskip=0 / chroma_qp_offset=-2 / threads=18 / lookahead_threads=3 / sliced_threads=0 / nr=0 / decimate=0 / interlaced=0 / bluray_compat=0 / constrained_intra=0 / fgo=0 / bframes=9 / b_pyramid=2 / b_adapt=2 / b_bias=0 / direct=3 / weightb=1 / open_gop=0 / weightp=2 / keyint=240 / keyint_min=24 / scenecut=40 / intra_refresh=0 / rc_lookahead=60 / rc=crf / mbtree=0 / crf=14.0500 / qcomp=0.65 / qpmin=0:0:0 / qpmax=69:69:69 / qpstep=4 / vbv_maxrate=62500 / vbv_bufsize=78125 / crf_max=0.0 / nal_hrd=none / filler=0 / ip_ratio=1.40 / pb_ratio=1.30 / aq=3:0.80 / aq-sensitivity=10.00 / aq-factor=1.00:1.00:1.00 / aq2=0 / aq3=0
Язык : Italian
Дата кодирования : UTC 2020-10-16 05:21:08
Дата пометки : UTC 2020-10-16 05:23:01
Цветовой диапазон : Limited
Основные цвета : BT.709
Характеристики трансфера : BT.709
Коэффициенты матрицы : BT.709
Menus : 6,7
Codec configuration box : avcC

Видео #2
Идентификатор : 7
Формат : JPEG
Идентификатор кодека : jpeg
Продолжительность : 1 ч. 30 м.
Вид битрейта : Переменный
Битрейт : 578 бит/сек
Ширина : 640 пикселей
Высота : 360 пикселей
Соотношение сторон : 16:9
Режим частоты кадров : Переменный
Частота кадров : 0,002 кадр/сек
Минимальная частота кадров : 0,001 кадр/сек
Максимальная частота кадров : 0,004 кадр/сек
Цветовое пространство : YUV
Субдискретизация насыщенности : 4:2:0
Битовая глубина : 8 бит
Метод сжатия : С потерями
Бит/(Пиксели*Кадры) : 1.254
Размер потока : 423 Кбайт (0%)
Язык : Italian
Default : Нет
Дата кодирования : UTC 2020-10-16 05:23:09
Дата пометки : UTC 2020-10-16 05:23:10
Menu For : 1
ColorSpace_ICC : RGB

Аудио #1
Идентификатор : 2
Формат : AAC LC
Формат/Информация : Advanced Audio Codec Low Complexity
Идентификатор кодека : mp4a-40-2
Продолжительность : 1 ч. 30 м.
Вид битрейта : Переменный
Битрейт : 197 Кбит/сек
Максимальный битрейт : 297 Кбит/сек
Каналы : 2 канала
Channel layout : L R
Частота : 48,0 КГц
Частота кадров : 46,875 кадров/сек (1024 SPF)
Метод сжатия : С потерями
Размер потока : 127 Мбайт (2%)
Язык : Russian
Default : Да
Alternate group : 1
Дата кодирования : UTC 2020-10-16 05:21:08
Дата пометки : UTC 2020-10-16 05:23:01
Fallback From : 4
tagc : public.main-program-content

Аудио #2
Идентификатор : 3
Формат : AAC LC
Формат/Информация : Advanced Audio Codec Low Complexity
Идентификатор кодека : mp4a-40-2
Продолжительность : 1 ч. 30 м.
Вид битрейта : Переменный
Битрейт : 196 Кбит/сек
Максимальный битрейт : 335 Кбит/сек
Каналы : 2 канала
Channel layout : L R
Частота : 48,0 КГц
Частота кадров : 46,875 кадров/сек (1024 SPF)
Метод сжатия : С потерями
Размер потока : 127 Мбайт (2%)
Язык : Italian
Default : Нет
Alternate group : 1
Дата кодирования : UTC 2020-10-16 05:21:08
Дата пометки : UTC 2020-10-16 05:23:01
Fallback From : 5
tagc : public.main-program-content

Аудио #3
Идентификатор : 4
Формат : AC-3
Формат/Информация : Audio Coding 3
Коммерческое название : Dolby Digital
Идентификатор кодека : ac-3
Продолжительность : 1 ч. 30 м.
Вид битрейта : Постоянный
Битрейт : 384 Кбит/сек
Каналы : 6 каналов
Channel layout : L R C LFE Ls Rs
Частота : 48,0 КГц
Частота кадров : 31,250 кадров/сек (1536 SPF)
Метод сжатия : С потерями
Размер потока : 249 Мбайт (4%)
Язык : Russian
Service kind : Complete Main
Default : Inherited From: 2
Alternate group : 1
Дата кодирования : UTC 2020-10-16 05:21:08
Дата пометки : UTC 2020-10-16 05:23:01
Fallback To : 2
tagc : public.main-program-content

Аудио #4
Идентификатор : 5
Формат : AC-3
Формат/Информация : Audio Coding 3
Коммерческое название : Dolby Digital
Идентификатор кодека : ac-3
Продолжительность : 1 ч. 30 м.
Вид битрейта : Постоянный
Битрейт : 640 Кбит/сек
Каналы : 6 каналов
Channel layout : L R C LFE Ls Rs
Частота : 48,0 КГц
Частота кадров : 31,250 кадров/сек (1536 SPF)
Метод сжатия : С потерями
Размер потока : 415 Мбайт (6%)
Язык : Italian
Service kind : Complete Main
Default : Нет
Alternate group : 1
Дата кодирования : UTC 2020-10-16 05:21:08
Дата пометки : UTC 2020-10-16 05:23:01
Fallback To : 3
tagc : public.main-program-content

Меню
Идентификатор : 6
Идентификатор кодека : text
Продолжительность : 1 ч. 30 м.
Язык : English
Дата кодирования : UTC 2020-10-16 05:23:01
Дата пометки : UTC 2020-10-16 05:23:01
Вид битрейта : CBR
Menu For : 1
00:00:00.000 : Chapter 01
00:09:35.583 : Chapter 02
00:14:53.042 : Chapter 03
00:23:39.917 : Chapter 04
00:28:10.125 : Chapter 05
00:36:24.833 : Chapter 06
00:47:31.708 : Chapter 07
00:53:41.792 : Chapter 08
00:59:28.542 : Chapter 09
01:04:56.083 : Chapter 10
01:12:56.792 : Chapter 11
01:23:35.542 : Chapter 12
Вид битрейта : Постоянный


Name: Господин Дьявол
Artist: Пупи Авати
Media Kind: Movie
HD Video: 720p
Genre: Ужасы
Release Date: 2020-10-15T07:00:00Z
Description: Молодой полицейский Фурио Моменте отправляется в регион Венето, чтобы расследовать загадочное и шокирующее преступления: подросток убил одного из своих сверстников, утверждая, что он убил самого дьявола.
Rating: ru-movie|16+|375|
Studio: Direzione Generale Cinema, Direzione Generale per il Cinema, Duea Film, Radiotelevisione Italiana (RAI), Rai Cinema, Ruggente Film
Cast: Габриэль Ло Джудиче, Филиппо Франкини, Чезаре Кремонини, Массимо Бонетти, Лино Каполиккьо
Director: Пупи Авати
Producers: Пупи Авати, Антонио Авати
Screenwriters: Пупи Авати, Антонио Авати, Томмазо Авати
Copyright: © 2020 «Ракета Релизинг»
content ID: 1533363405
iTunes Country: 143469

Скриншоты:


Все одноименные релизы в Клубе
Время раздачи: 24/7 (до появления первых 3-5 скачавших)

Релиз подготовлен для просмотра на Apple TV, iPad, iPhone, iPod Touch.
Для просмотра данного релиза на компьютере с ОС Windows рекомендуется использовать VLC media player
Il.signor.Diavolo.2019.BDRip.720p.NNMClub.m4v.torrent
 Торрент: Платиновая раздача  Зарегистрирован
 
Скачать


Примагнититься
 Зарегистрирован:   16 Окт 2020 08:28:49
 Размер:   6,28 GB  (
 Рейтинг:    (Голосов: 4)
 Поблагодарили:   28
 Проверка:   Оформление проверено модератором 18 Окт 2020 11:18:02
Как cкачать  ·  Как раздать  ·  Правильно оформить  ·  Поднять ратио!  

_________________
«Всё против нас, только ветер навстречу…».
🍏Apple iMac 21.5 (mid 2011) / Intel Core i5 2.7 GHz / AMD Radeon HD 6770M 512 Mb / 12GB DDR3 / Apple Trackpad, Apple Keyboard / macOS High Sierra 10.13.6 (17G13033)
Levantine
Стаж: 3 года 1 мес.
Сообщений: 20
Ratio: 1,154
1.8%
визуально очень стильно снят фильм... мне понравился...
Gepardus
Стаж: 9 лет 9 мес.
Сообщений: 503
Ratio: 3,368
100%
japan.gif
Фильм крайне странный и абсолютно бессмысленный.
Ужасов в нём никаких нету, впрочем как и детектива тоже.
Есть только ничем не оправданный пустопорожний саспенс.
Показать сообщения:   
Начать новую тему   Ответить на тему    Торрент-трекер NNM-Club -> Аудио и Видео -> Зарубежное видео HD для устройств Apple Часовой пояс: GMT + 3
Страница 1 из 1