Классический форум-трекер
canvas not supported
Нас вместе: 4 129 584

Higurashi no Naku Koro ni: Gou / Higurashi: When They Cry - Gou / Когда плачут цикады (2020) [2020, TV, 3 из 24] WEB-DL HEVC 1080p Rus


 
 
RSS
Начать новую тему   Ответить на тему    Торрент-трекер NNM-Club -> Аниме с озвучкой -> Онгоинги с озвучкой
Автор Сообщение
Ampho_DnB ®
RG Аниме
Uploader 100+
 
Стаж: 8 лет 9 мес.
Сообщений: 3890
Ratio: 327,082
Поблагодарили: 90396
100%
Откуда: Душанбе
roody.gif
Higurashi no Naku Koro ni: Gou / Higurashi: When They Cry - Gou
Когда плачут цикады (2020)

Жанр: триллер, ужасы, мистика, детектив
Тип: TV-сериал
Продолжительность: 3 из 24 эпизодов по 25 минут
Выпуск: c 01.10.2020
Автор: Рюкиси07
Режиссер: Кавагути Кэйитиро
Производство: Passione
Информационные ссылки: AniDB || World Art || MAL || ANN
Релиз подготовлен студией Wakanim
  • Тип озвучки: Многоголосая, закадровая

Описание:
В том, что в тихом омуте черти водятся, юному Кэйчи пришлось убедиться на своём собственном опыте. Переехав с родителями из города в живописную деревушку Хинамидзаву и подружившись в маленькой местной школе с очаровательными одноклассницами, он даже не подозревал, насколько обманчиво его представление об этом безмятежном крае и его обитателях. Но, как позднее выяснил Кэйчи, за фасадом деревенской идиллии скрывается тёмная история зверских убийств и бесследных исчезновений, а под покровом благостной тиши действуют какие-то ужасные силы.
Качество: WEB-DLRip | Энкод: EMBER
Язык озвучки: Японский и Русский
Формат: MKV
Видео: HEVC, 1920x1080, ~1 600 kbps, 23.976 fps
Аудио: AAC, 253 kbps, 48.0 kHz, 2 ch
Аудио: AAC, 192 kbps, 48.0 kHz, 2 ch
Серия 1
Серия 2
Серия 3
General
Unique ID : 155629103899622821256478455840643345259 (0x7515133C7EF0CB178BB6C7095761EB6B)
Complete name : Higurashi no Naku Koro ni (2020) [Wakanim]\[Wakanim] Higurashi no Naku Koro ni (2020) - 01 [1080p][HEVC x265][AAC].mkv
Format : Matroska
Format version : Version 4
File size : 349 MiB
Duration : 23 min 50 s
Overall bit rate : 2 046 kb/s
Encoded date : UTC 2020-10-18 09:04:11
Writing application : mkvmerge v51.0.0 ('I Wish') 64-bit
Writing library : libebml v1.4.0 + libmatroska v1.6.2

Video
ID : 1
Format : HEVC
Format/Info : High Efficiency Video Coding
Format profile : Main@L4@Main
Codec ID : V_MPEGH/ISO/HEVC
Duration : 23 min 50 s
Bit rate : 1 600 kb/s
Width : 1 920 pixels
Height : 1 080 pixels
Display aspect ratio : 16:9
Frame rate mode : Constant
Frame rate : 23.976 (24000/1001) FPS
Color space : YUV
Chroma subsampling : 4:2:0
Bit depth : 8 bits
Bits/(Pixel*Frame) : 0.032
Stream size : 273 MiB (78%)
Default : Yes
Forced : No

Audio #1
ID : 2
Format : AAC LC
Format/Info : Advanced Audio Codec Low Complexity
Codec ID : A_AAC-2
Duration : 23 min 50 s
Bit rate : 192 kb/s
Channel(s) : 2 channels
Channel layout : L R
Sampling rate : 48.0 kHz
Frame rate : 46.875 FPS (1024 SPF)
Compression mode : Lossy
Stream size : 32.3 MiB (9%)
Language : Russian
Default : Yes
Forced : No

Audio #2
ID : 3
Format : AAC LC
Format/Info : Advanced Audio Codec Low Complexity
Codec ID : A_AAC-2
Duration : 23 min 50 s
Bit rate : 253 kb/s
Channel(s) : 2 channels
Channel layout : L R
Sampling rate : 48.0 kHz
Frame rate : 46.875 FPS (1024 SPF)
Compression mode : Lossy
Stream size : 43.2 MiB (12%)
Language : Japanese
Default : No
Forced : No


Время раздачи: До первых сидов
[NNMClub.to]_Higurashi no Naku Koro ni (2020) [Wakanim].torrent
 Торрент:   Зарегистрирован
 
Зарегистрируйтесь и скачайте торрент!
11,1 KB

Примагнититься
 Зарегистрирован:   18 Окт 2020 12:48:07
 Размер:   1,04 GB  (
 Рейтинг:    (Голосов: 2)
 Поблагодарили:   12
 Проверка:   Оформление проверено модератором 18 Окт 2020 14:35:09
Как cкачать  ·  Как раздать  ·  Правильно оформить  ·  Поднять ратио!  
4avezzz
Стаж: 9 лет 11 мес.
Сообщений: 261
Ratio: 208,092
100%
jamaica.gif
Блин, одна из лучших франшиз! Все предыдущие сезоны были мегакруты! Вариант"сперва кавай-потом кровищща!!!" действовал безотказно! Посмотрим, что сделали в 2020. =)
Gepardus
Стаж: 9 лет 8 мес.
Сообщений: 489
Ratio: 3,117
100%
japan.gif
Перезагрузка?
"Плачущие чайки" откровенно понравились. "Плачущие цикады" мутноваты больно. Многое откровенно притянуто за уши.
Показать сообщения:   
Начать новую тему   Ответить на тему    Торрент-трекер NNM-Club -> Аниме с озвучкой -> Онгоинги с озвучкой Часовой пояс: GMT + 3
Страница 1 из 1