Классический форум-трекер
canvas not supported
Нас вместе: 4 134 057

Soukyuu no Fafner: Dead Aggressor - Heaven and Earth / Fafner: Heaven and Earth / Небесный Фафнир: Мёртвый агрессор - Небо и Земля [2010, Movie] BDRip 1080p Raw


 
 
RSS
Начать новую тему   Ответить на тему    Торрент-трекер NNM-Club -> Аниме с субтитрами -> Аниме (FullHD)
Автор Сообщение
хИНАРИх ®
Uploader 100+
Стаж: 3 года 10 мес.
Сообщений: 301
Ratio: 11K
Раздал: 174,8 TB
Поблагодарили: 6340
100%
roody.gif
Soukyuu no Fafner: Dead Aggressor - Heaven and Earth
Fafner: Heaven and Earth
Небесный Фафнир: Мёртвый агрессор - Небо и Земля

Жанр: приключения, фантастика, меха
Тип: полнометражный фильм
Продолжительность: 95 минут
Период выхода: 25.12.2010
Производство: Xebec
Сценарий: Убуката То
Режиссер: Судзуки Тосимаса
Ссылки: World-Art, Ani-DB, Shikimori, Официальный сайт, ANN, MAL
Описание: С момента последней крупной схватки с Фестумами минуло два года. Жители острова Тацумия постепенно возвращаются к своей прежней размеренной жизни.
Казуки Макабэ, ослепший с тех пор, с каждым днём всё больше теряет веру в обещание, данное ему Соши прямо перед своим исчезновением, что он вернётся, и всё вновь станет по-прежнему. Но всё меняется однажды ночью с появлением неопознанной подводной лодки в бухте острова Тацумия, на борту которой оказывается таинственный юноша по имени Мисао Курусу, утверждающий, что его послал не кто иной, как Соши. С появлением Мисао вражда между Фестумами и человечеством вспыхивает с новой силой. Казуки и остальным пилотам Фафниров приходится вновь схлестнуться со старым врагом, на этот раз, пожалуй, в самой важной битве в их жизни — битве, которой суждено определить будущее
людей и Фестумов. ©Mad1van
Качество видео: BDRip
Видео: AVC, 8 bit, 1920x1080, 20.9 Mbps
Аудио 1: FLAC, 2 ch, 48 kHz, 636 kbps | Звук: Японский
Аудио 2: FLAC, 6 ch, 48 kHz, 1713 kbps | Звук: Японский
Субтитры: Русские
Перевод от: AlexVector
General
Complete name : [ReinForce] Soukyuu no Fafner - Dead Aggressor HEAVEN AND EARTH [BDRip 1920x1080 x264 FLAC].mkv
Format : Matroska
Format version : Version 4
File size : 15.1 GiB
Duration : 1 h 32 min
Overall bit rate mode : Variable
Overall bit rate : 23.3 Mb/s
Movie name : [ReinForce] Soukyuu no Fafner - HEAVEN AND EARTH (BDRip 1920x1080 x264 FLAC)
Encoded date : UTC 2020-08-22 15:14:55
Writing application : mkvmerge v8.3.0 ('Over the Horizon') 64bit
Writing library : libebml v1.3.1 + libmatroska v1.4.2

Video
ID : 1
Format : AVC
Format/Info : Advanced Video Codec
Format profile : High@L4
Format settings : CABAC / 4 Ref Frames
Format settings, CABAC : Yes
Format settings, Reference : 4 frames
Codec ID : V_MPEG4/ISO/AVC
Duration : 1 h 32 min
Bit rate : 20.9 Mb/s
Width : 1 920 pixels
Height : 1 080 pixels
Display aspect ratio : 16:9
Frame rate mode : Constant
Frame rate : 23.976 (24000/1001) FPS
Color space : YUV
Chroma subsampling : 4:2:0
Bit depth : 8 bits
Scan type : Progressive
Bits/(Pixel*Frame) : 0.421
Stream size : 13.6 GiB (90%)
Writing library : x264 core 120
Encoding settings : cabac=1 / ref=4 / deblock=1:-2:-2 / analyse=0x3:0x113 / me=umh / subme=9 / psy=1 / psy_rd=0.70:0.00 / mixed_ref=0 / me_range=32 / chroma_me=1 / trellis=2 / 8x8dct=1 / cqm=0 / deadzone=21,11 / fast_pskip=1 / chroma_qp_offset=-2 / threads=8 / sliced_threads=0 / nr=0 / decimate=1 / interlaced=0 / bluray_compat=0 / constrained_intra=0 / bframes=9 / b_pyramid=2 / b_adapt=2 / b_bias=0 / direct=3 / weightb=1 / open_gop=0 / weightp=2 / keyint=250 / keyint_min=23 / scenecut=40 / intra_refresh=0 / rc_lookahead=40 / rc=crf / mbtree=1 / crf=15.0 / qcomp=0.70 / qpmin=10 / qpmax=20 / qpstep=4 / ip_ratio=1.40 / aq=1:1.00
Language : Japanese
Default : Yes
Forced : No

Audio #1
ID : 2
Format : FLAC
Format/Info : Free Lossless Audio Codec
Codec ID : A_FLAC
Duration : 1 h 32 min
Bit rate mode : Variable
Bit rate : 636 kb/s
Channel(s) : 2 channels
Channel layout : L R
Sampling rate : 48.0 kHz
Frame rate : 10.417 FPS (4608 SPF)
Bit depth : 16 bits
Compression mode : Lossless
Stream size : 422 MiB (3%)
Writing library : Lavf54.29.104
Language : Japanese
Default : Yes
Forced : No

Audio #2
ID : 3
Format : FLAC
Format/Info : Free Lossless Audio Codec
Codec ID : A_FLAC
Duration : 1 h 32 min
Bit rate mode : Variable
Bit rate : 1 713 kb/s
Channel(s) : 6 channels
Channel layout : L R C LFE Ls Rs
Sampling rate : 48.0 kHz
Frame rate : 10.417 FPS (4608 SPF)
Bit depth : 16 bits
Compression mode : Lossless
Stream size : 1.11 GiB (7%)
Writing library : Lavf54.29.104
Language : Japanese
Default : No
Forced : No



Время раздачи: круглосуточно
[NNMClub.to]_Soukyuu no Fafner Dead Aggressor - Heaven and Earth.torrent
 Торрент: Серебряная раздча  Зарегистрирован
 
Зарегистрируйтесь и скачайте торрент!
75,8 KB

Примагнититься
 Зарегистрирован:   08 Ноя 2020 01:55:47
 Размер:   15,1 GB  (
 Рейтинг:    (Голосов: 3)
 Поблагодарили:   10
 Проверка:   Оформление проверено модератором 08 Ноя 2020 12:36:22
Как cкачать  ·  Как раздать  ·  Правильно оформить  ·  Поднять ратио!  
sergeandr
Стаж: 10 лет 3 мес.
Сообщений: 5
Ratio: 16,681
0%
Soukyuu no Fafner: Dead Aggressor - Heaven and Earth / Fafner: Heaven and Earth / Небесный Фафнир: Мёртвый агрессор - Небо и Земля [1987, Movie] BDRip 1080p Raw
Период выхода: 25.12.2010
хИНАРИх ®
Uploader 100+
Стаж: 3 года 10 мес.
Сообщений: 301
Ratio: 11K
Раздал: 174,8 TB
Поблагодарили: 6340
100%
roody.gif
sergeandr писал(а): Перейти к сообщению
Soukyuu no Fafner: Dead Aggressor - Heaven and Earth / Fafner: Heaven and Earth / Небесный Фафнир: Мёртвый агрессор - Небо и Земля [1987, Movie] BDRip 1080p Raw
Период выхода: 25.12.2010


Спасибо! Исправлено.
Показать сообщения:   
Начать новую тему   Ответить на тему    Торрент-трекер NNM-Club -> Аниме с субтитрами -> Аниме (FullHD) Часовой пояс: GMT + 3
Страница 1 из 1