Классический форум-трекер
canvas not supported
Нас вместе: 4 135 647

Slade - Old New Borrowed And Blue (1974) [DSD 128|tracks (Vinyl-Rip)]<Glam-Rock>


 
 
RSS
Начать новую тему   Ответить на тему    Торрент-трекер NNM-Club -> HD Audio и Многоканальная Музыка -> Vinyl-Rip и Hand-Made
Автор Сообщение
tegoffs ®
Виниловод. Сталкер
Стаж: 12 лет 11 мес.
Сообщений: 2953
Ratio: 17.767
Поблагодарили: 10557
100%
Откуда: мне знать?
honduras.gif
Slade - Old New Borrowed And Blue (1974)
Год: 1974
Лейбл: Polydor (2383 261)
Страна: UK
Жанр: Glam-Rock
Продолжительность: 00:37:32

Кодек: DSD 128
Тип рипа: tracks
Формат записи: 1/5.6 MHz
Формат раздачи: 1/5.6 MHz

Треклист:
01. Just Want A Little Bit (4:04)
02. When The Lights Are Out (3:08)
03. My Town (3:08)
04. Find Yourself A Rainbow (2:12)
05. Miles Out To Sea (3:51)
06. We're Really Gonna Raise The Roof (3:08)
07. Do We Still Do It (3:02)
08. How Can It Be (3:03)
09. Don't Blame Me (2:35)
10. My Friend Stan (2:42)
11. Everyday (3:09)
12. Good Time Gals (3:31)
Состояние диска нормальное, только один дефект, но какой - трамплин на первом треке. На OC9/III проходит, потому как она тяжелая, да и грузится на 2 грамма по спецификации. В остальном - nm-.
Тракт: AT-OC9/III -> Yamaha GT-750 -> Lehmann Audio Black Cube SE -> Korg MR-2000S (интерконнекты Yamaha и AudioQuest Evergreen).
Без обработки.
Постер и дополнительная информация прописаны в треках.
Ковриков нет.
Код: выделить все
General
Complete name                            : J:\torrents\Slade - 1974 - Old New Borrowed And Blue\01. Just Want A Little Bit.dsf
Format                                   : DSF
Format/Info                              : Direct Stream Digital Stream File
Format version                           : Version 1
File size                                : 328 MiB
Duration                                 : 4 min 3 s
Overall bit rate                         : 11.3 Mb/s
Album replay gain                        : -5.03 dB
Album replay gain peak                   : 1.041211
Album                                    : Old New Borrowed And Blue
Track name                               : Just Want A Little Bit
Track name/Position                      : 1
Track name/Total                         : 12
Performer                                : Slade
Publisher                                : https://www.discogs.com/Slade-Old-New-Borrowed-And-Blue/release/4918518
Recorded date                            : 1974
Writing library                          : KORG AudioGate ver.4.5.2 (Windows 7)
Cover                                    : Yes
Cover type                               : Cover (front)
Cover MIME                               : image/jpeg
Comment                                  : AT-OC9/III -> Yamaha GT-750 -> Lehmann Audio Black Cube SE -> Korg MR-2000S (интерконнекты Yamaha и AudioQuest Evergreen).

Audio
Format                                   : DSD
Format/Info                              : Direct Stream Digital
Commercial name                          : DSD128
Format settings                          : Little
Duration                                 : 4 min 3 s
Bit rate                                 : 11.3 Mb/s
Channel(s)                               : 2 channels
Channel layout                           : L R
Sampling rate                            : 5 645 kHz
Compression mode                         : Lossless
Replay gain                              : -5.03 dB
Replay gain peak                         : 1.041211
Stream size                              : 328 MiB (100%)

General
Complete name                            : J:\torrents\Slade - 1974 - Old New Borrowed And Blue\02. When The Lights Are Out.dsf
Format                                   : DSF
Format/Info                              : Direct Stream Digital Stream File
Format version                           : Version 1
File size                                : 253 MiB
Duration                                 : 3 min 8 s
Overall bit rate                         : 11.3 Mb/s
Album replay gain                        : -5.03 dB
Album replay gain peak                   : 1.041211
Album                                    : Old New Borrowed And Blue
Track name                               : When The Lights Are Out
Track name/Position                      : 2
Track name/Total                         : 12
Performer                                : Slade
Publisher                                : https://www.discogs.com/Slade-Old-New-Borrowed-And-Blue/release/4918518
Recorded date                            : 1974
Writing library                          : KORG AudioGate ver.4.5.2 (Windows 7)
Cover                                    : Yes
Cover type                               : Cover (front)
Cover MIME                               : image/jpeg
Comment                                  : AT-OC9/III -> Yamaha GT-750 -> Lehmann Audio Black Cube SE -> Korg MR-2000S (интерконнекты Yamaha и AudioQuest Evergreen).

Audio
Format                                   : DSD
Format/Info                              : Direct Stream Digital
Commercial name                          : DSD128
Format settings                          : Little
Duration                                 : 3 min 8 s
Bit rate                                 : 11.3 Mb/s
Channel(s)                               : 2 channels
Channel layout                           : L R
Sampling rate                            : 5 645 kHz
Compression mode                         : Lossless
Replay gain                              : -5.03 dB
Replay gain peak                         : 1.041211
Stream size                              : 253 MiB (100%)

General
Complete name                            : J:\torrents\Slade - 1974 - Old New Borrowed And Blue\03. My Town.dsf
Format                                   : DSF
Format/Info                              : Direct Stream Digital Stream File
Format version                           : Version 1
File size                                : 253 MiB
Duration                                 : 3 min 7 s
Overall bit rate                         : 11.3 Mb/s
Album replay gain                        : -5.03 dB
Album replay gain peak                   : 1.041211
Album                                    : Old New Borrowed And Blue
Track name                               : My Town
Track name/Position                      : 3
Track name/Total                         : 12
Performer                                : Slade
Publisher                                : https://www.discogs.com/Slade-Old-New-Borrowed-And-Blue/release/4918518
Recorded date                            : 1974
Writing library                          : KORG AudioGate ver.4.5.2 (Windows 7)
Cover                                    : Yes
Cover type                               : Cover (front)
Cover MIME                               : image/jpeg
Comment                                  : AT-OC9/III -> Yamaha GT-750 -> Lehmann Audio Black Cube SE -> Korg MR-2000S (интерконнекты Yamaha и AudioQuest Evergreen).

Audio
Format                                   : DSD
Format/Info                              : Direct Stream Digital
Commercial name                          : DSD128
Format settings                          : Little
Duration                                 : 3 min 7 s
Bit rate                                 : 11.3 Mb/s
Channel(s)                               : 2 channels
Channel layout                           : L R
Sampling rate                            : 5 645 kHz
Compression mode                         : Lossless
Replay gain                              : -5.03 dB
Replay gain peak                         : 1.041211
Stream size                              : 253 MiB (100%)

General
Complete name                            : J:\torrents\Slade - 1974 - Old New Borrowed And Blue\04. Find Yourself A Rainbow.dsf
Format                                   : DSF
Format/Info                              : Direct Stream Digital Stream File
Format version                           : Version 1
File size                                : 177 MiB
Duration                                 : 2 min 11 s
Overall bit rate                         : 11.3 Mb/s
Album replay gain                        : -5.03 dB
Album replay gain peak                   : 1.041211
Album                                    : Old New Borrowed And Blue
Track name                               : Find Yourself A Rainbow
Track name/Position                      : 4
Track name/Total                         : 12
Performer                                : Slade
Publisher                                : https://www.discogs.com/Slade-Old-New-Borrowed-And-Blue/release/4918518
Recorded date                            : 1974
Writing library                          : KORG AudioGate ver.4.5.2 (Windows 7)
Cover                                    : Yes
Cover type                               : Cover (front)
Cover MIME                               : image/jpeg
Comment                                  : AT-OC9/III -> Yamaha GT-750 -> Lehmann Audio Black Cube SE -> Korg MR-2000S (интерконнекты Yamaha и AudioQuest Evergreen).

Audio
Format                                   : DSD
Format/Info                              : Direct Stream Digital
Commercial name                          : DSD128
Format settings                          : Little
Duration                                 : 2 min 11 s
Bit rate                                 : 11.3 Mb/s
Channel(s)                               : 2 channels
Channel layout                           : L R
Sampling rate                            : 5 645 kHz
Compression mode                         : Lossless
Replay gain                              : -5.03 dB
Replay gain peak                         : 1.041211
Stream size                              : 177 MiB (100%)

General
Complete name                            : J:\torrents\Slade - 1974 - Old New Borrowed And Blue\05. Miles Out To Sea.dsf
Format                                   : DSF
Format/Info                              : Direct Stream Digital Stream File
Format version                           : Version 1
File size                                : 311 MiB
Duration                                 : 3 min 50 s
Overall bit rate                         : 11.3 Mb/s
Album replay gain                        : -5.03 dB
Album replay gain peak                   : 1.041211
Album                                    : Old New Borrowed And Blue
Track name                               : Miles Out To Sea
Track name/Position                      : 5
Track name/Total                         : 12
Performer                                : Slade
Publisher                                : https://www.discogs.com/Slade-Old-New-Borrowed-And-Blue/release/4918518
Recorded date                            : 1974
Writing library                          : KORG AudioGate ver.4.5.2 (Windows 7)
Cover                                    : Yes
Cover type                               : Cover (front)
Cover MIME                               : image/jpeg
Comment                                  : AT-OC9/III -> Yamaha GT-750 -> Lehmann Audio Black Cube SE -> Korg MR-2000S (интерконнекты Yamaha и AudioQuest Evergreen).

Audio
Format                                   : DSD
Format/Info                              : Direct Stream Digital
Commercial name                          : DSD128
Format settings                          : Little
Duration                                 : 3 min 50 s
Bit rate                                 : 11.3 Mb/s
Channel(s)                               : 2 channels
Channel layout                           : L R
Sampling rate                            : 5 645 kHz
Compression mode                         : Lossless
Replay gain                              : -5.03 dB
Replay gain peak                         : 1.041211
Stream size                              : 311 MiB (100%)

General
Complete name                            : J:\torrents\Slade - 1974 - Old New Borrowed And Blue\06. We're Really Gonna Raise The Roof.dsf
Format                                   : DSF
Format/Info                              : Direct Stream Digital Stream File
Format version                           : Version 1
File size                                : 254 MiB
Duration                                 : 3 min 8 s
Overall bit rate                         : 11.3 Mb/s
Album replay gain                        : -5.03 dB
Album replay gain peak                   : 1.041211
Album                                    : Old New Borrowed And Blue
Track name                               : We're Really Gonna Raise The Roof
Track name/Position                      : 6
Track name/Total                         : 12
Performer                                : Slade
Publisher                                : https://www.discogs.com/Slade-Old-New-Borrowed-And-Blue/release/4918518
Recorded date                            : 1974
Writing library                          : KORG AudioGate ver.4.5.2 (Windows 7)
Cover                                    : Yes
Cover type                               : Cover (front)
Cover MIME                               : image/jpeg
Comment                                  : AT-OC9/III -> Yamaha GT-750 -> Lehmann Audio Black Cube SE -> Korg MR-2000S (интерконнекты Yamaha и AudioQuest Evergreen).

Audio
Format                                   : DSD
Format/Info                              : Direct Stream Digital
Commercial name                          : DSD128
Format settings                          : Little
Duration                                 : 3 min 8 s
Bit rate                                 : 11.3 Mb/s
Channel(s)                               : 2 channels
Channel layout                           : L R
Sampling rate                            : 5 645 kHz
Compression mode                         : Lossless
Replay gain                              : -5.03 dB
Replay gain peak                         : 1.041211
Stream size                              : 254 MiB (100%)

General
Complete name                            : J:\torrents\Slade - 1974 - Old New Borrowed And Blue\07. Do We Still Do It.dsf
Format                                   : DSF
Format/Info                              : Direct Stream Digital Stream File
Format version                           : Version 1
File size                                : 245 MiB
Duration                                 : 3 min 1 s
Overall bit rate                         : 11.3 Mb/s
Album replay gain                        : -5.03 dB
Album replay gain peak                   : 1.041211
Album                                    : Old New Borrowed And Blue
Track name                               : Do We Still Do It
Track name/Position                      : 7
Track name/Total                         : 12
Performer                                : Slade
Publisher                                : https://www.discogs.com/Slade-Old-New-Borrowed-And-Blue/release/4918518
Recorded date                            : 1974
Writing library                          : KORG AudioGate ver.4.5.2 (Windows 7)
Cover                                    : Yes
Cover type                               : Cover (front)
Cover MIME                               : image/jpeg
Comment                                  : AT-OC9/III -> Yamaha GT-750 -> Lehmann Audio Black Cube SE -> Korg MR-2000S (интерконнекты Yamaha и AudioQuest Evergreen).

Audio
Format                                   : DSD
Format/Info                              : Direct Stream Digital
Commercial name                          : DSD128
Format settings                          : Little
Duration                                 : 3 min 1 s
Bit rate                                 : 11.3 Mb/s
Channel(s)                               : 2 channels
Channel layout                           : L R
Sampling rate                            : 5 645 kHz
Compression mode                         : Lossless
Replay gain                              : -5.03 dB
Replay gain peak                         : 1.041211
Stream size                              : 245 MiB (100%)

General
Complete name                            : J:\torrents\Slade - 1974 - Old New Borrowed And Blue\08. How Can It Be.dsf
Format                                   : DSF
Format/Info                              : Direct Stream Digital Stream File
Format version                           : Version 1
File size                                : 247 MiB
Duration                                 : 3 min 3 s
Overall bit rate                         : 11.3 Mb/s
Album replay gain                        : -5.03 dB
Album replay gain peak                   : 1.041211
Album                                    : Old New Borrowed And Blue
Track name                               : How Can It Be
Track name/Position                      : 8
Track name/Total                         : 12
Performer                                : Slade
Publisher                                : https://www.discogs.com/Slade-Old-New-Borrowed-And-Blue/release/4918518
Recorded date                            : 1974
Writing library                          : KORG AudioGate ver.4.5.2 (Windows 7)
Cover                                    : Yes
Cover type                               : Cover (front)
Cover MIME                               : image/jpeg
Comment                                  : AT-OC9/III -> Yamaha GT-750 -> Lehmann Audio Black Cube SE -> Korg MR-2000S (интерконнекты Yamaha и AudioQuest Evergreen).

Audio
Format                                   : DSD
Format/Info                              : Direct Stream Digital
Commercial name                          : DSD128
Format settings                          : Little
Duration                                 : 3 min 3 s
Bit rate                                 : 11.3 Mb/s
Channel(s)                               : 2 channels
Channel layout                           : L R
Sampling rate                            : 5 645 kHz
Compression mode                         : Lossless
Replay gain                              : -5.03 dB
Replay gain peak                         : 1.041211
Stream size                              : 247 MiB (100%)

General
Complete name                            : J:\torrents\Slade - 1974 - Old New Borrowed And Blue\09. Don't Blame Me.dsf
Format                                   : DSF
Format/Info                              : Direct Stream Digital Stream File
Format version                           : Version 1
File size                                : 209 MiB
Duration                                 : 2 min 35 s
Overall bit rate                         : 11.3 Mb/s
Album replay gain                        : -5.03 dB
Album replay gain peak                   : 1.041211
Album                                    : Old New Borrowed And Blue
Track name                               : Don't Blame Me
Track name/Position                      : 9
Track name/Total                         : 12
Performer                                : Slade
Publisher                                : https://www.discogs.com/Slade-Old-New-Borrowed-And-Blue/release/4918518
Recorded date                            : 1974
Writing library                          : KORG AudioGate ver.4.5.2 (Windows 7)
Cover                                    : Yes
Cover type                               : Cover (front)
Cover MIME                               : image/jpeg
Comment                                  : AT-OC9/III -> Yamaha GT-750 -> Lehmann Audio Black Cube SE -> Korg MR-2000S (интерконнекты Yamaha и AudioQuest Evergreen).

Audio
Format                                   : DSD
Format/Info                              : Direct Stream Digital
Commercial name                          : DSD128
Format settings                          : Little
Duration                                 : 2 min 35 s
Bit rate                                 : 11.3 Mb/s
Channel(s)                               : 2 channels
Channel layout                           : L R
Sampling rate                            : 5 645 kHz
Compression mode                         : Lossless
Replay gain                              : -5.03 dB
Replay gain peak                         : 1.041211
Stream size                              : 209 MiB (100%)

General
Complete name                            : J:\torrents\Slade - 1974 - Old New Borrowed And Blue\10. My Friend Stan.dsf
Format                                   : DSF
Format/Info                              : Direct Stream Digital Stream File
Format version                           : Version 1
File size                                : 218 MiB
Duration                                 : 2 min 41 s
Overall bit rate                         : 11.3 Mb/s
Album replay gain                        : -5.03 dB
Album replay gain peak                   : 1.041211
Album                                    : Old New Borrowed And Blue
Track name                               : My Friend Stan
Track name/Position                      : 10
Track name/Total                         : 12
Performer                                : Slade
Publisher                                : https://www.discogs.com/Slade-Old-New-Borrowed-And-Blue/release/4918518
Recorded date                            : 1974
Writing library                          : KORG AudioGate ver.4.5.2 (Windows 7)
Cover                                    : Yes
Cover type                               : Cover (front)
Cover MIME                               : image/jpeg
Comment                                  : AT-OC9/III -> Yamaha GT-750 -> Lehmann Audio Black Cube SE -> Korg MR-2000S (интерконнекты Yamaha и AudioQuest Evergreen).

Audio
Format                                   : DSD
Format/Info                              : Direct Stream Digital
Commercial name                          : DSD128
Format settings                          : Little
Duration                                 : 2 min 41 s
Bit rate                                 : 11.3 Mb/s
Channel(s)                               : 2 channels
Channel layout                           : L R
Sampling rate                            : 5 645 kHz
Compression mode                         : Lossless
Replay gain                              : -5.03 dB
Replay gain peak                         : 1.041211
Stream size                              : 218 MiB (100%)

General
Complete name                            : J:\torrents\Slade - 1974 - Old New Borrowed And Blue\11. Everyday.dsf
Format                                   : DSF
Format/Info                              : Direct Stream Digital Stream File
Format version                           : Version 1
File size                                : 255 MiB
Duration                                 : 3 min 9 s
Overall bit rate                         : 11.3 Mb/s
Album replay gain                        : -5.03 dB
Album replay gain peak                   : 1.041211
Album                                    : Old New Borrowed And Blue
Track name                               : Everyday
Track name/Position                      : 11
Track name/Total                         : 12
Performer                                : Slade
Publisher                                : https://www.discogs.com/Slade-Old-New-Borrowed-And-Blue/release/4918518
Recorded date                            : 1974
Writing library                          : KORG AudioGate ver.4.5.2 (Windows 7)
Cover                                    : Yes
Cover type                               : Cover (front)
Cover MIME                               : image/jpeg
Comment                                  : AT-OC9/III -> Yamaha GT-750 -> Lehmann Audio Black Cube SE -> Korg MR-2000S (интерконнекты Yamaha и AudioQuest Evergreen).

Audio
Format                                   : DSD
Format/Info                              : Direct Stream Digital
Commercial name                          : DSD128
Format settings                          : Little
Duration                                 : 3 min 9 s
Bit rate                                 : 11.3 Mb/s
Channel(s)                               : 2 channels
Channel layout                           : L R
Sampling rate                            : 5 645 kHz
Compression mode                         : Lossless
Replay gain                              : -5.03 dB
Replay gain peak                         : 1.041211
Stream size                              : 255 MiB (100%)

General
Complete name                            : J:\torrents\Slade - 1974 - Old New Borrowed And Blue\12. Good Time Gals.dsf
Format                                   : DSF
Format/Info                              : Direct Stream Digital Stream File
Format version                           : Version 1
File size                                : 284 MiB
Duration                                 : 3 min 30 s
Overall bit rate                         : 11.3 Mb/s
Album replay gain                        : -5.03 dB
Album replay gain peak                   : 1.041211
Album                                    : Old New Borrowed And Blue
Track name                               : Good Time Gals
Track name/Position                      : 12
Track name/Total                         : 12
Performer                                : Slade
Publisher                                : https://www.discogs.com/Slade-Old-New-Borrowed-And-Blue/release/4918518
Recorded date                            : 1974
Writing library                          : KORG AudioGate ver.4.5.2 (Windows 7)
Cover                                    : Yes
Cover type                               : Cover (front)
Cover MIME                               : image/jpeg
Comment                                  : AT-OC9/III -> Yamaha GT-750 -> Lehmann Audio Black Cube SE -> Korg MR-2000S (интерконнекты Yamaha и AudioQuest Evergreen).

Audio
Format                                   : DSD
Format/Info                              : Direct Stream Digital
Commercial name                          : DSD128
Format settings                          : Little
Duration                                 : 3 min 30 s
Bit rate                                 : 11.3 Mb/s
Channel(s)                               : 2 channels
Channel layout                           : L R
Sampling rate                            : 5 645 kHz
Compression mode                         : Lossless
Replay gain                              : -5.03 dB
Replay gain peak                         : 1.041211
Stream size                              : 284 MiB (100%)

General
Complete name                            : J:\torrents\Slade - 1974 - Old New Borrowed And Blue\cover.jpg
Format                                   : JPEG
File size                                : 122 KiB

Image
Format                                   : JPEG
Width                                    : 471 pixels
Height                                   : 470 pixels
Color space                              : YUV
Chroma subsampling                       : 4:4:4
Bit depth                                : 8 bits
Compression mode                         : Lossy
Stream size                              : 122 KiB (100%)

General
Complete name                            : J:\torrents\Slade - 1974 - Old New Borrowed And Blue\foo_dr.txt
File size                                : 1.52 KiB

Код: выделить все
foobar2000 1.4.6 / Dynamic Range Meter 1.1.1
log date: 2020-11-12 23:10:15

--------------------------------------------------------------------------------
Analyzed: Slade / Old New Borrowed And Blue
--------------------------------------------------------------------------------

DR         Peak         RMS     Duration Track
--------------------------------------------------------------------------------
DR13      -1.41 dB   -16.75 dB      4:04 01-Just Want A Little Bit
DR10      -2.34 dB   -14.13 dB      3:08 02-When The Lights Are Out
DR11      -2.94 dB   -15.16 dB      3:08 03-My Town
DR12      -3.04 dB   -17.51 dB      2:12 04-Find Yourself A Rainbow
DR11      -2.08 dB   -14.99 dB      3:51 05-Miles Out To Sea
DR11      -4.07 dB   -16.53 dB      3:08 06-We're Really Gonna Raise The Roof
DR11      -0.29 dB   -12.91 dB      3:02 07-Do We Still Do It
DR12      -1.84 dB   -15.43 dB      3:03 08-How Can It Be
DR11      -0.44 dB   -14.75 dB      2:35 09-Don't Blame Me
DR11      -1.06 dB   -14.91 dB      2:42 10-My Friend Stan
DR11      -2.45 dB   -16.49 dB      3:09 11-Everyday
DR11      -2.82 dB   -16.22 dB      3:31 12-Good Time Gals
--------------------------------------------------------------------------------

Number of tracks:  12
Official DR value: DR11

Samplerate:        5644800 Hz / PCM Samplerate: 176400 Hz
Channels:          2
Bits per sample:   1
Bitrate:           11290 kbps
Codec:             DSD128
================================================================================
Время раздачи: 24/7 до пяти скачавших.
[NNMClub.to]_Slade - 1974 - Old New Borrowed And Blue.torrent
 Торрент: Платиновая раздача  Зарегистрирован
 
Скачать


Примагнититься
 Зарегистрирован:   13 Ноя 2020 07:25:26
 Размер:   2.96 GB  (
 Рейтинг:   4.8 (Голосов: 14)
 Поблагодарили:   61
 Проверка:   Оформление проверено модератором 14 Ноя 2020 10:30:43
Как cкачать  ·  Как раздать  ·  Правильно оформить  ·  Поднять ратио!  
VINIL MAN
Виниловый маньяк
Стаж: 10 лет 9 мес.
Сообщений: 8980
Ratio: 89.049
Раздал: 2.7 TB
Поблагодарили: 35723
100%
Откуда: Переяслав
ukraine.gif
Дякую. :респект:Ъ
Пласт 1974-го года и - nm? о_О!

_________________
Я не собираюсь менять мир, я просто хочу перевязать вам раны... Ян Андерсон
tegoffs ®
Виниловод. Сталкер
Стаж: 12 лет 11 мес.
Сообщений: 2953
Ratio: 17.767
Поблагодарили: 10557
100%
Откуда: мне знать?
honduras.gif
VINIL MAN
У него деформация на первом треке, потому он и nm :) Народ видит, что скачет и его тихой цапой беребрасывает с рук на руки дальше. Когда он ко мне пришёл, я отписал продавцу "как мол так - какой же он ниаминт с таким перекосом?" А он говорит, что мол почта во всем виновата - таскает послыки по жаре, вот он и прогнулся. Но это была полная фигня - по всем признакам деформация застарелая. Вообщем дал он мне десять баков скидки с тридцати, на этом и успокоились.

С первой стороны он проходит нормально - деформация вниз, и иглу не выбрасывает. А на второй стороне проходит только с тяжелой иглой.

_________________
It's only rock 'n' roll but I like it! (c) Jagger and Richards
VINIL MAN
Виниловый маньяк
Стаж: 10 лет 9 мес.
Сообщений: 8980
Ratio: 89.049
Раздал: 2.7 TB
Поблагодарили: 35723
100%
Откуда: Переяслав
ukraine.gif
tegoffs
Ясно. Везде надуват.

_________________
Я не собираюсь менять мир, я просто хочу перевязать вам раны... Ян Андерсон
dobrin51
Стаж: 7 лет 8 мес.
Сообщений: 21
Ratio: 23.212
100%
Саунд крутой!!! В Болгарии кучу денег стоит такая пластинка! Благодарности многа раз!!!
Показать сообщения:   
Начать новую тему   Ответить на тему    Торрент-трекер NNM-Club -> HD Audio и Многоканальная Музыка -> Vinyl-Rip и Hand-Made Часовой пояс: GMT + 3
Страница 1 из 1