Классический форум-трекер
canvas not supported
Нас вместе: 4 133 940

Ирландец / The Irishman (2019) BDRip [720p] ATV


 
 
RSS
Начать новую тему   Ответить на тему    Торрент-трекер NNM-Club -> Аудио и Видео -> Зарубежное видео HD для устройств Apple
Автор Сообщение
Весельчак У ®
Модератор Apple
Uploader 100+
Стаж: 6 лет 11 мес.
Сообщений: 7829
Ratio: 178,785
Поблагодарили: 248475
100%
Откуда: От Москвы недалеко...
ussr.gif
Ирландец / The Irishman (2019) BDRip [720p] ATV«His story changed history»
Производство: США / Winkler Films, Sikelia Productions, Tribeca Productions
Жанр: Криминал, драма, биография

Режиссер: Мартин Скорсезе
Продюсер: Ричард Баратта, Марианн Бауэр, Джералд Чамалс
Актеры: Роберт Де Ниро, Анна Пэкуин, Аль Пачино, Джо Пеши, Алекса Палладино, Джесси Племонс, Харви Кейтель, Бобби Каннавале, Стивен Грэм, Джек Хьюстон

Описание:
В доме престарелых сильно пожилой мужчина по имени Фрэнк Ширан вспоминает свою жизнь. В 1950-е он работал простым водителем грузовика, совсем не хотел быть гангстером и думал, что маляры - это те, кто красят дома, когда случайно познакомился с криминальным авторитетом Расселом Буфалино. Тот взял парня под своё крыло, начал давать ему небольшие поручения, и вот уже Фрэнк по прозвищу Ирландец сам работает «маляром», мафиозным киллером. Вскоре Рассел сводит его с известным профсоюзным лидером Джимми Хоффой.



Рейтинг MPAA: R (лицам до 17 лет обязательно присутствие взрослого)
Дата мировой премьеры: 27 сентября 2019

Релиз от: NNMClub

Продолжительность: 03:29:04
Качество видео: BDRip 720p
Перевод: Дублированный (Пифагор)
Субтитры: Русские (Forced, full), английские (full, SDH)

Видео: H.264, 1280x692, ~6970 kbps, 23.976 fps
Аудио#1: AAC, 2.0 ch, 179 Kbps - Русский DUB, Пифагор
Аудио#2: AAC, 2.0 ch, 170 Kbps - English Original
Аудио#3: AC3, 6.0 ch, 640 Kbps - Русский DUB, Пифагор
Аудио#4: AC3, 6.0 ch, 448 Kbps - English Original

Общее
Полное имя : /Volumes/HDD/NNMClub/The.Irishman.2019.BDRip.720p.NNMClub.m4v
Формат : MPEG-4
Идентификатор кодека : M4V (M4V /M4A /mp42/isom)
Размер файла : 12,3 Гбайт
Продолжительность : 3 ч. 30 м.
Режим общего битрейта : Переменный
Общий поток : 8 380 Кбит/сек
Название фильма : Ирландец
Исполнитель : Martin Scorsese
Композитор : Robbie Robertson
Режиссёр : Martin Scorsese
Исполнитель : Robert De Niro / Al Pacino / Joe Pesci / Stephen Graham / Ray Romano / Harvey Keitel / Bobby Cannavale / Anna Paquin / Stephanie Kurtzuba / Kathrine Narducci / Welker White / Jesse Plemons / Jack Huston / Domenick Lombardozzi / Paul Herman / Louis Cancelmi / Gary Basaraba / Marin Ciallella
Сценарист : Steven Zaillian / Charles Brandt
Продюсер : Robert De Niro / Martin Scorsese / Jane Rosenthal / Irwin Winkler / Randall Emmett / Emma Tillinger Koskoff / Troy Allen / Gastón Pavlovich / Gerald Chamales / Gabriele Israilovici
Исполнительный продюсер : Nicholas Pileggi, George Furla, Rick Yorn, Richard Baratta, Chad A. Verdi, Jai Stefan, Niels Juul, Tyler Zacharia, Berry Welsh
Студия-производитель : Tribeca Productions, Sikelia Productions, Winkler Films
Жанр : криминал, драма, история
Тип содержимого : Short Film
Дата записи : UTC 2019-11-01 12:00:00
Дата кодирования : UTC 2020-11-15 01:38:29
Дата пометки : UTC 2020-11-15 01:42:47
Обложка : Yes
LongDescription : Основанный на книге «Я слышал, ты красишь дома» фильм рассказывает о Фрэнке Ширэне по прозвищу Ирландец, которому приписывают убийство 25 гангстеров.
HDVideo : Yes
ContentRating : mpaa|R|400|

Видео #1
Идентификатор : 1
Формат : AVC
Формат/Информация : Advanced Video Codec
Профиль формата : High@L4.1
Настройки формата : CABAC / 9 Ref Frames
Параметр CABAC формата : Да
Параметр RefFrames формата : 9 кадров
Идентификатор кодека : avc1
Идентификатор кодека/Информация : Advanced Video Coding
Продолжительность : 3 ч. 29 м.
Битрейт : 6 970 Кбит/сек
Ширина : 1 280 пикселей
Высота : 692 пикселя
Соотношение сторон : 1,85:1
Режим частоты кадров : Переменный
Частота кадров : 23,976 (24000/1001) кадра/сек
Минимальная частота кадров : 23,810 кадра/сек
Максимальная частота кадров : 24,390 кадра/сек
Цветовое пространство : YUV
Субдискретизация насыщенности : 4:2:0
Битовая глубина : 8 бит
Тип развёртки : Прогрессивная
Бит/(Пиксели*Кадры) : 0.328
Размер потока : 10,2 Гбайт (83%)
Библиотека кодирования : x264 core 157 r2938 2b00a84 TnP@MTeam Mod
Настройки программы : cabac=1 / ref=9 / deblock=1:-3:-3 / analyse=0x3:0x133 / me=umh / subme=10 / psy=1 / psy_rd=1.05:0.00 / mixed_ref=1 / me_range=32 / chroma_me=1 / trellis=2 / 8x8dct=1 / cqm=0 / deadzone=21,11 / fast_pskip=0 / chroma_qp_offset=-2 / threads=12 / lookahead_threads=2 / sliced_threads=0 / nr=0 / decimate=0 / interlaced=0 / bluray_compat=0 / constrained_intra=0 / bframes=8 / b_pyramid=2 / b_adapt=2 / b_bias=0 / direct=3 / weightb=1 / open_gop=0 / weightp=2 / keyint=250 / keyint_min=24 / scenecut=40 / intra_refresh=0 / rc_lookahead=250 / rc=crf / mbtree=0 / crf=16.8 / qcomp=0.60 / qpmin=0 / qpmax=69 / qpstep=4 / vbv_maxrate=62500 / vbv_bufsize=78125 / crf_max=0.0 / nal_hrd=none / filler=0 / ip_ratio=1.30 / pb_ratio=1.20 / aq=3:0.80
Язык : English
Дата кодирования : UTC 2020-11-15 01:38:29
Дата пометки : UTC 2020-11-15 01:42:31
Цветовой диапазон : Limited
Основные цвета : BT.709
Коэффициенты матрицы : BT.709
Menus : 10,11
Codec configuration box : avcC

Видео #2
Идентификатор : 11
Формат : JPEG
Идентификатор кодека : jpeg
Продолжительность : 3 ч. 29 м.
Вид битрейта : Переменный
Битрейт : 630 бит/сек
Ширина : 640 пикселей
Высота : 346 пикселей
Соотношение сторон : 1,85:1
Режим частоты кадров : Переменный
Частота кадров : 0,002 кадр/сек
Минимальная частота кадров : 0,001 кадр/сек
Максимальная частота кадров : 0,005 кадр/сек
Цветовое пространство : YUV
Субдискретизация насыщенности : 4:2:0
Битовая глубина : 8 бит
Метод сжатия : С потерями
Бит/(Пиксели*Кадры) : 1.423
Размер потока : 1,01 Мбайт (0%)
Язык : English
Default : Нет
Дата кодирования : UTC 2020-11-15 01:42:45
Дата пометки : UTC 2020-11-15 01:42:46
Menu For : 1
ColorSpace_ICC : RGB

Аудио #1
Идентификатор : 2
Формат : AAC LC
Формат/Информация : Advanced Audio Codec Low Complexity
Идентификатор кодека : mp4a-40-2
Продолжительность : 3 ч. 30 м.
Вид битрейта : Переменный
Битрейт : 179 Кбит/сек
Максимальный битрейт : 324 Кбит/сек
Каналы : 2 канала
Channel layout : L R
Частота : 48,0 КГц
Частота кадров : 46,875 кадров/сек (1024 SPF)
Метод сжатия : С потерями
Размер потока : 269 Мбайт (2%)
Язык : Russian
Default : Да
Alternate group : 1
Дата кодирования : UTC 2020-11-15 01:38:29
Дата пометки : UTC 2020-11-15 01:42:31
Fallback From : 4
tagc : public.main-program-content

Аудио #2
Идентификатор : 3
Формат : AAC LC
Формат/Информация : Advanced Audio Codec Low Complexity
Идентификатор кодека : mp4a-40-2
Продолжительность : 3 ч. 29 м.
Вид битрейта : Переменный
Битрейт : 170 Кбит/сек
Максимальный битрейт : 309 Кбит/сек
Каналы : 2 канала
Channel layout : L R
Частота : 48,0 КГц
Частота кадров : 46,875 кадров/сек (1024 SPF)
Метод сжатия : С потерями
Размер потока : 254 Мбайт (2%)
Язык : English
Default : Нет
Alternate group : 1
Дата кодирования : UTC 2020-11-15 01:38:29
Дата пометки : UTC 2020-11-15 01:42:31
Fallback From : 5
tagc : public.main-program-content

Аудио #3
Идентификатор : 4
Формат : AC-3
Формат/Информация : Audio Coding 3
Коммерческое название : Dolby Digital
Идентификатор кодека : ac-3
Продолжительность : 3 ч. 30 м.
Вид битрейта : Постоянный
Битрейт : 640 Кбит/сек
Каналы : 6 каналов
Channel layout : L R C LFE Ls Rs
Частота : 48,0 КГц
Частота кадров : 31,250 кадров/сек (1536 SPF)
Метод сжатия : С потерями
Размер потока : 962 Мбайт (8%)
Язык : Russian
Service kind : Complete Main
Default : Inherited From: 2
Alternate group : 1
Дата кодирования : UTC 2020-11-15 01:38:29
Дата пометки : UTC 2020-11-15 01:42:31
Fallback To : 2
tagc : public.main-program-content

Аудио #4
Идентификатор : 5
Формат : AC-3
Формат/Информация : Audio Coding 3
Коммерческое название : Dolby Digital
Идентификатор кодека : ac-3
Продолжительность : 3 ч. 29 м.
Вид битрейта : Постоянный
Битрейт : 448 Кбит/сек
Каналы : 6 каналов
Channel layout : L R C LFE Ls Rs
Частота : 48,0 КГц
Частота кадров : 31,250 кадров/сек (1536 SPF)
Метод сжатия : С потерями
Размер потока : 670 Мбайт (5%)
Язык : English
Service kind : Complete Main
Default : Нет
Alternate group : 1
Дата кодирования : UTC 2020-11-15 01:38:29
Дата пометки : UTC 2020-11-15 01:42:31
Fallback To : 3
tagc : public.main-program-content

Текст #1
Идентификатор : 6
Формат : Timed Text
Режим смешивания : sbtl
Идентификатор кодека : tx3g
Продолжительность : 3 ч. 28 м.
Вид битрейта : Переменный
Битрейт : 12 бит/сек
Размер потока : 19,0 Кбайт (0%)
Язык : Russian
Default : Да
Forced : Нет
Alternate group : 2
Дата кодирования : UTC 2020-11-15 01:38:29
Дата пометки : UTC 2020-11-15 01:42:31
tagc : public.subtitles.forced-only

Текст #2
Идентификатор : 7
Формат : Timed Text
Режим смешивания : sbtl
Идентификатор кодека : tx3g
Продолжительность : 3 ч. 28 м.
Вид битрейта : Переменный
Битрейт : 111 бит/сек
Размер потока : 170 Кбайт (0%)
Язык : Russian
Default : Нет
Forced : Нет
Alternate group : 2
Дата кодирования : UTC 2020-11-15 01:38:29
Дата пометки : UTC 2020-11-15 01:42:31
tagc : public.main-program-content

Текст #3
Идентификатор : 8
Формат : Timed Text
Режим смешивания : sbtl
Идентификатор кодека : tx3g
Продолжительность : 18 м. 36 с.
Вид битрейта : Переменный
Битрейт : 3 бит/сек
Размер потока : 409 байт (0%)
Язык : English
Default : Нет
Forced : Нет
Alternate group : 2
Дата кодирования : UTC 2020-11-15 01:38:29
Дата пометки : UTC 2020-11-15 01:42:31
tagc : public.main-program-content

Текст #4
Идентификатор : 9
Формат : Timed Text
Режим смешивания : sbtl
Идентификатор кодека : tx3g
Продолжительность : 3 ч. 18 м.
Вид битрейта : Переменный
Битрейт : 83 бит/сек
Размер потока : 122 Кбайт (0%)
Язык : English
Default : Нет
Forced : Нет
Alternate group : 2
Дата кодирования : UTC 2020-11-15 01:38:29
Дата пометки : UTC 2020-11-15 01:42:31
tagc : public.accessibility.transcribes-spoken-dialog

Меню
Идентификатор : 10
Идентификатор кодека : text
Продолжительность : 3 ч. 29 м.
Язык : English
Дата кодирования : UTC 2020-11-15 01:42:31
Дата пометки : UTC 2020-11-15 01:42:31
Menu For : 1
00:00:00.000 : Chapter 1
00:04:37.735 : Chapter 2
00:08:42.271 : Chapter 3
00:12:11.647 : Chapter 4
00:17:37.014 : Chapter 5
00:25:13.553 : Chapter 6
00:29:41.071 : Chapter 7
00:39:21.442 : Chapter 8
00:46:31.622 : Chapter 9
00:54:23.009 : Chapter 10
00:59:44.289 : Chapter 11
01:11:16.438 : Chapter 12
01:22:17.933 : Chapter 13
01:31:00.621 : Chapter 14
01:38:54.428 : Chapter 15
01:48:45.519 : Chapter 16
01:58:00.865 : Chapter 17
02:07:42.238 : Chapter 18
02:13:30.752 : Chapter 19
02:24:02.550 : Chapter 20
02:31:10.810 : Chapter 21
02:34:28.384 : Chapter 22
02:50:18.208 : Chapter 23
02:55:26.390 : Chapter 24
03:04:12.249 : Chapter 25
03:13:43.361 : Chapter 26
03:19:20.573 : Chapter 27


Name: Ирландец
Artist: Martin Scorsese
Media Kind: Movie
HD Video: 720p
Genre: криминал, драма, история
Release Date: 2019-11-01T12:00:00Z
Long Description: Основанный на книге «Я слышал, ты красишь дома» фильм рассказывает о Фрэнке Ширэне по прозвищу Ирландец, которому приписывают убийство 25 гангстеров.
Rating: mpaa|R|400|
Studio: Tribeca Productions, Sikelia Productions, Winkler Films
Cast: Robert De Niro, Al Pacino, Joe Pesci, Stephen Graham, Ray Romano, Harvey Keitel, Bobby Cannavale, Anna Paquin, Stephanie Kurtzuba, Kathrine Narducci, Welker White, Jesse Plemons, Jack Huston, Domenick Lombardozzi, Paul Herman, Louis Cancelmi, Gary Basaraba, Marin Ciallella
Director: Martin Scorsese
Producers: Robert De Niro, Martin Scorsese, Jane Rosenthal, Irwin Winkler, Randall Emmett, Emma Tillinger Koskoff, Troy Allen, Gastón Pavlovich, Gerald Chamales, Gabriele Israilovici
Executive Producer: Nicholas Pileggi, George Furla, Rick Yorn, Richard Baratta, Chad A. Verdi, Jai Stefan, Niels Juul, Tyler Zacharia, Berry Welsh
Screenwriters: Steven Zaillian, Charles Brandt
Composer: Robbie Robertson

Скриншоты:


Все одноименные релизы в Клубе
Время раздачи: 24/7 (до появления первых 3-5 скачавших)

Релиз подготовлен для просмотра на Apple TV, iPad, iPhone, iPod Touch.
Для просмотра данного релиза на компьютере с ОС Windows рекомендуется использовать VLC media player
The.Irishman.2019.BDRip.720p.NNMClub.m4v.torrent
 Торрент: Платиновая раздача  Зарегистрирован
 
Скачать


Примагнититься
 Зарегистрирован:   15 Ноя 2020 04:57:19
 Размер:   12,3 GB  (
 Рейтинг:    (Голосов: 2)
 Поблагодарили:   30
 Проверка:   Оформление проверено модератором 15 Ноя 2020 08:26:08
Как cкачать  ·  Как раздать  ·  Правильно оформить  ·  Поднять ратио!  

_________________
«Всё против нас, только ветер навстречу…».
🍏Apple iMac 21.5 (mid 2011) / Intel Core i5 2.7 GHz / AMD Radeon HD 6770M 512 Mb / 12GB DDR3 / Apple Trackpad, Apple Keyboard / macOS High Sierra 10.13.6 (17G13033)
Показать сообщения:   
Начать новую тему   Ответить на тему    Торрент-трекер NNM-Club -> Аудио и Видео -> Зарубежное видео HD для устройств Apple Часовой пояс: GMT + 3
Страница 1 из 1