Классический форум-трекер
canvas not supported
Нас вместе: 4 135 022

Princess Connect! Re:Dive / PriConne / Связь принцесс! Новое погружение [2020, TV, 13] BDRemux 1080p raw


 
 
RSS
Начать новую тему   Ответить на тему    Торрент-трекер NNM-Club -> Аниме разное -> Аниме Blu-ray, Remux
Автор Сообщение
kvaking ®
RG Аниме
Uploader 100+
 
Стаж: 10 лет 3 мес.
Сообщений: 2945
Ratio: 286.839
Раздал: 454.2 TB
Поблагодарили: 19409
100%
Откуда: Осака
roody.gif
プリンセスコネクト! Re:Dive
Princess Connect! Re:Dive
PriConne
Связь принцесс! Новое погружение

Жанр: приключения, фэнтези, комедия
Количество серий: 13
Продолжительность: 13 серий по 25 мин
Качество видео: BDRemux
Дата премьеры / период выхода: c 06.04.2020 по 30.06.2020

Производство/студия:

Режиссер: Такаоми Канадзаки

Битрейт видео: ~40.9 Mb/s
Формат видио: MKV
Размер кадра: 1920x1080
Аудио: PCM 2.0, 3 072 kb/s
Язык субтитров: Русский [nnm-club^anime]

Описание:
Экранизация мобильной игры: Princess Connect! Re:Dive

"Princess Connect! Re:Dive" — мобильная игра, развивающая историю альтернативной концовки игры "Princess Connect!".

История рассказывает о мире, где создали VR-игру "Астрея". Главная цель игры — прохождение "Башни Сол", после которой всемогущий искуственный интеллект под названием "Минерва" исполнит любое желание игрока.
Главный герой по имени Юки обладает силой "Princess Knight'а" — Рыцаря Прицесс. Эта сила позволяет ему увеличивать мощь игроков-девушек.

Однажды он просыпается в незнакомом месте с полной потерей памяти и видит пред собой серебряновласую эльфийку. Девушка представилась как Коккоро и рассказала герою, что является его проводником, который поможет ему восстановить очень важные потерянные воспоминания. Заодно она сказала, что герой теперь её Хозяин, и она будет служить ему всю жизнь.

Так начинается история, в которой героям предстоит узнать о том, что настоящая реальность и виртуальный мир поменялись местами, а воспоминания почти всех игроков изменились, и их ждёт нелёгкая судьба.

© kvaking, nnm-club^anime

Ссылки:

Скриншоты:
01. Меню 1. Начало приключений ~Жареные грибочки на закате~
02. Меню 2. Капризы кошки-проказницы ~Тёплые, золотые рисовые шарики~
03. Меню 3. Оплот Гурманов ~Секретный ингредиент — Божественный плод~
04. Меню 4. Добро пожаловать в гильдию Гурманов ~Тушёная говядина в сумерках~
05. Меню 5 Кашка с любовью ~Связанные вечной судьбой~
06. Меню 6 Мелодия отправления ~Ароматные специи под звёздным небом~
07. Меню 7 Свет, пронзающий тьму ~Две сестры-близняшки~
08. Меню 8 Маленький романтичный паёк ~Яичница по-деревенски~
09. Меню 9 Врата Гурманов ~Ароматные щупальца на пляже~
10. Меню 10 Цветы в вечной темноте ~Проклятый Пудинг~
11. Меню 11 Вечерний дом ~Хрустящая охота за хот-догом~
12. Меню 12 Договор чудного кондитера ~Память Лабиринта и блинчики~
13. Меню 13 Потерянная Принцесса ~Украшенный улыбками~
Код: выделить все
General
Unique ID                      : 124360085605104609049272754214061605659 (0x5D8EE19B42C963CBA9B0C1ADCCE6031B)
Complete name                  : K:\Princess Connect! Re:Dive (BDRemux)\[Double-Raws] Princess Connect! Re:Dive - 01 (BDRemux 1920x1080 x264 PCM).mkv
Format                         : Matroska
Format version                 : Version 4
File size                      : 6.77 GiB
Duration                       : 23 min 41 s
Overall bit rate mode          : Variable
Overall bit rate               : 40.9 Mb/s
Writing application            : Lavf
Writing library                : Lavf
ErrorDetectionType             : Per level 1

Video
ID                             : 1
Format                         : AVC
Format/Info                    : Advanced Video Codec
Format profile                 : High@L4.1
Format settings                : CABAC / 4 Ref Frames
Format settings, CABAC         : Yes
Format settings, Reference fra : 4 frames
Codec ID                       : V_MPEG4/ISO/AVC
Duration                       : 23 min 41 s
Bit rate mode                  : Variable
Bit rate                       : 37.0 Mb/s
Maximum bit rate               : 40.0 Mb/s
Width                          : 1 920 pixels
Height                         : 1 080 pixels
Display aspect ratio           : 16:9
Frame rate mode                : Constant
Frame rate                     : 23.976 (24000/1001) FPS
Color space                    : YUV
Chroma subsampling             : 4:2:0
Bit depth                      : 8 bits
Scan type                      : Progressive
Bits/(Pixel*Frame)             : 0.745
Stream size                    : 6.13 GiB (91%)
Default                        : Yes
Forced                         : No
Duration_Source                : General_Duration

Audio
ID                             : 2
Format                         : PCM
Format settings                : Little / Signed
Codec ID                       : A_PCM/INT/LIT
Duration                       : 23 min 41 s
Bit rate mode                  : Constant
Bit rate                       : 3 072 kb/s
Channel(s)                     : 2 channels
Sampling rate                  : 48.0 kHz
Bit depth                      : 32 bits
Stream size                    : 520 MiB (8%)
Language                       : Japanese
Default                        : Yes
Forced                         : No
Duration_Source                : General_Duration
Время раздачи: 24/7
[NNMClub.to]_Princess Connect! Re:Dive (BDRemux).torrent
 Торрент: Платиновая раздача  Зарегистрирован
 
Скачать


Примагнититься
 Зарегистрирован:   16 Ноя 2020 22:54:58
 Размер:   86 GB  (
 Рейтинг:    (Голосов: 4)
 Поблагодарили:   11
 Проверка:   Оформление проверено модератором 16 Ноя 2020 22:55:16
Не забывайте поблагодарить релизера, нажав на клавишу Спасибо!
Вам не сложно, а мне приятно. =)
Как cкачать  ·  Как раздать  ·  Правильно оформить  ·  Поднять ратио!  

_________________

[Double-Raws] - Да начнётся война за качество!
Тестер нового формата.
Показать сообщения:   
Начать новую тему   Ответить на тему    Торрент-трекер NNM-Club -> Аниме разное -> Аниме Blu-ray, Remux Часовой пояс: GMT + 3
Страница 1 из 1