Классический форум-трекер
canvas not supported
Нас вместе: 4 079 238

Gilla - Nur Das Beste - Die Grossten Hits - 1975-1979 (2000) [APE|Lossless]<Disco>


 
 
RSS
Начать новую тему   Ответить на тему    Торрент-трекер NNM-Club -> Pop -> Disco, Italo-Disco, Euro-Disco, Hi-NRG (Lossless)
Автор Сообщение
telefant ®
Стаж: 10 лет 2 мес.
Сообщений: 12
Ratio: 64,562
Поблагодарили: 344
100%
ussr.gif
Gilla ‎– Nur Das Beste - Die Grossten Hits - 1975-1979 (2000)
Год: 2000
Жанр: Disco
Продолжительность: 01:13:55

Кодек: APE
Битрейт: Lossless

Треклист:
01. Tu es (Remix 2000) (3:47)
02. Tu es (3:37)
03. Willst Du mit mir schlafen geh'n? (3:40)
04. Mir ist kein Weg zu weit (3:49)
05. Zieh' mich aus (4:16)
06. Rasputin (4:43)
07. Johnny (3:55)
08. Hold On (3:52)
09. Take Your Time (3:41)
10. Worte (3:18)
11. Du bist nicht die erste Liebe (3:29)
12. Was vorbei ist, ist vorbei (4:33)
13. Bleib bei mir - geh doch (4:02)
14. Bend Me Shape Me (3:49)
15. Help Help (3:08)
16. The Heat Is On (3:43)
17. Heartbreaker (3:41)
18. Cool Rock'n'Roll (3:41)
19. We Gotta Get Out Of This Place (4:39)
20. Tu es (Bonustrack) (3:34)
Код:
Exact Audio Copy V0.99 prebeta 3 from 28. July 2007

EAC Auslese-Logdatei vom 31. Juli 2008, 6:39

Gilla / Nur das Beste

Benutztes Laufwerk : SONY    DVD RW DW-Q31A   Adapter: 0  ID: 0

Lesemodus                      : Sicher
Benutze Accurate Stream        : Ja
Audio Puffer abgeschaltet      : Ja
Benutze C2 Fehlerinformationen : Nein

Leseoffset Korrektur                           : 6
Ьberlesen in das Lead-In und Lead-Out          : Nein
Fьlle fehlende Offsetsample mit Stille auf     : Ja
Lцsche fьhrende und nachfolgende stille Blцcke : Nein
Null Samples gehen in CRC Berechnungen ein     : Ja
Benutzte Schnittstelle                         : Installierte externe ASPI Schnittstelle

Benutztes Ausgabeformat : Interne WAV Routinen
Sampleformat            : 44.100 Hz; 16 Bit; Stereo

TOC der ausgelesenen CD

     Track |   Start  |   Lдnge  | Startsektor | Endsektor
    -------------------------------------------------------
        1  |  0:00.32 |  3:46.38 |       32    |   17019
        2  |  3:46.70 |  3:36.45 |    17020    |   33264
        3  |  7:23.40 |  3:39.45 |    33265    |   49734
        4  | 11:03.10 |  3:48.40 |    49735    |   66874
        5  | 14:51.50 |  4:16.07 |    66875    |   86081
        6  | 19:07.57 |  4:43.05 |    86082    |  107311
        7  | 23:50.62 |  3:54.70 |   107312    |  124931
        8  | 27:45.57 |  3:52.08 |   124932    |  142339
        9  | 31:37.65 |  3:40.67 |   142340    |  158906
       10  | 35:18.57 |  3:17.50 |   158907    |  173731
       11  | 38:36.32 |  3:28.63 |   173732    |  189394
       12  | 42:05.20 |  4:32.70 |   189395    |  209864
       13  | 46:38.15 |  4:01.67 |   209865    |  228006
       14  | 50:40.07 |  3:49.13 |   228007    |  245194
       15  | 54:29.20 |  3:08.37 |   245195    |  259331
       16  | 57:37.57 |  3:42.70 |   259332    |  276051
       17  | 61:20.52 |  3:41.30 |   276052    |  292656
       18  | 65:02.07 |  3:40.45 |   292657    |  309201
       19  | 68:42.52 |  4:38.63 |   309202    |  330114
       20  | 73:21.40 |  3:33.67 |   330115    |  346156

Bereichsstatus und Fehler

Gewдhlter Bereich

     Dateiname C:\Gilla - Nur das Beste\Gilla - Nur das Beste.wav

     Spitzenpegel 100.0 %
     Bereichsqualitдt 100.0 %
     Kopie CRC 2749D3F8
     Kopie OK

Keine Fehler aufgetreten

AccurateRip Ьbersicht

Track  1  nicht in Datenbank enthalten
Track  2  nicht in Datenbank enthalten
Track  3  nicht in Datenbank enthalten
Track  4  nicht in Datenbank enthalten
Track  5  nicht in Datenbank enthalten
Track  6  nicht in Datenbank enthalten
Track  7  nicht in Datenbank enthalten
Track  8  nicht in Datenbank enthalten
Track  9  nicht in Datenbank enthalten
Track 10  nicht in Datenbank enthalten
Track 11  nicht in Datenbank enthalten
Track 12  nicht in Datenbank enthalten
Track 13  nicht in Datenbank enthalten
Track 14  nicht in Datenbank enthalten
Track 15  nicht in Datenbank enthalten
Track 16  nicht in Datenbank enthalten
Track 17  nicht in Datenbank enthalten
Track 18  nicht in Datenbank enthalten
Track 19  nicht in Datenbank enthalten
Track 20  nicht in Datenbank enthalten

Keiner der Tracks ist in der AccurateRip Datenbank vorhanden

Ende des Statusreports
Код:
-----------------------

DON'T MODIFY THIS FILE

-----------------------

PERFORMER: auCDtect Task Manager, ver. 1.6.0 RC1 build 1.6.0.1
Copyright (c) 2008-2010 y-soft. All rights reserved
http://y-soft.org

ANALYZER: auCDtect: CD records authenticity detector, version 0.8.2
Copyright (c) 2004 Oleg Berngardt. All rights reserved.
Copyright (c) 2004 Alexander Djourik. All rights reserved.

FILE: Gilla - Nur das Beste.ape
  Size: 555706880 Hash: B857C5B47ACC361B1E2996F4B7A73993 Accuracy: -m0
  Conclusion: CDDA 100%
  Signature: 3575E65DF6C6CBEBC66A8B766069418F24D632BA
Код:
REM DATE 2003
REM DISCID 1A120714
REM COMMENT "ExactAudioCopy v0.99pb3"
PERFORMER "Gilla"
TITLE "Nur das Beste"
FILE "Gilla - Nur das Beste.wav" WAVE
  TRACK 01 AUDIO
    TITLE "Tu es (Remix 2000)"
    PERFORMER "Gilla"
    INDEX 00 00:00:00
    INDEX 01 00:00:32
  TRACK 02 AUDIO
    TITLE "Tu es"
    PERFORMER "Gilla"
    INDEX 00 03:46:10
    INDEX 01 03:46:70
  TRACK 03 AUDIO
    TITLE "Willst Du mit mir schlafen geh'n?"
    PERFORMER "Gilla"
    INDEX 00 07:22:40
    INDEX 01 07:23:40
  TRACK 04 AUDIO
    TITLE "Mir ist kein Weg zu weit"
    PERFORMER "Gilla"
    INDEX 00 11:01:55
    INDEX 01 11:03:10
  TRACK 05 AUDIO
    TITLE "Zieh' mich aus"
    PERFORMER "Gilla"
    INDEX 00 14:50:25
    INDEX 01 14:51:50
  TRACK 06 AUDIO
    TITLE "Rasputin"
    PERFORMER "Gilla"
    INDEX 00 19:06:62
    INDEX 01 19:07:57
  TRACK 07 AUDIO
    TITLE "Johnny"
    PERFORMER "Gilla"
    INDEX 00 23:49:22
    INDEX 01 23:50:62
  TRACK 08 AUDIO
    TITLE "Hold On"
    PERFORMER "Gilla"
    INDEX 00 27:44:45
    INDEX 01 27:45:57
  TRACK 09 AUDIO
    TITLE "Take Your Time"
    PERFORMER "Gilla"
    INDEX 00 31:36:00
    INDEX 01 31:37:65
  TRACK 10 AUDIO
    TITLE "Worte"
    PERFORMER "Gilla"
    INDEX 00 35:17:02
    INDEX 01 35:18:57
  TRACK 11 AUDIO
    TITLE "Du bist nicht die erste Liebe"
    PERFORMER "Gilla"
    INDEX 00 38:35:02
    INDEX 01 38:36:32
  TRACK 12 AUDIO
    TITLE "Was vorbei ist, ist vorbei"
    PERFORMER "Gilla"
    INDEX 00 42:04:05
    INDEX 01 42:05:20
  TRACK 13 AUDIO
    TITLE "Bleib bei mir - geh doch"
    PERFORMER "Gilla"
    INDEX 00 46:36:50
    INDEX 01 46:38:15
  TRACK 14 AUDIO
    TITLE "Bend Me Shape Me"
    PERFORMER "Gilla"
    INDEX 00 50:38:40
    INDEX 01 50:40:07
  TRACK 15 AUDIO
    TITLE "Help Help"
    PERFORMER "Gilla"
    INDEX 00 54:28:10
    INDEX 01 54:29:20
  TRACK 16 AUDIO
    TITLE "The Heat Is On"
    PERFORMER "Gilla"
    INDEX 00 57:36:37
    INDEX 01 57:37:57
  TRACK 17 AUDIO
    TITLE "Heartbreaker"
    PERFORMER "Gilla"
    INDEX 00 61:19:67
    INDEX 01 61:20:52
  TRACK 18 AUDIO
    TITLE "Cool Rock'n'Roll"
    PERFORMER "Gilla"
    INDEX 00 65:00:52
    INDEX 01 65:02:07
  TRACK 19 AUDIO
    TITLE "We Gotta Get Out Of This Place"
    PERFORMER "Gilla"
    INDEX 00 68:41:60
    INDEX 01 68:42:52
  TRACK 20 AUDIO
    TITLE "Tu es (Bonustrack)"
    PERFORMER "Gilla"
    INDEX 00 73:20:50
    INDEX 01 73:21:40
Время раздачи: основное с 15:00 до 23:00, но иногда с после 10:00.


Поглощение/вытеснение
Только с согласия релизера

DesideriuM

Реставрация релиза: DesideriuM
[NNM-Club.ru]_Gilla - Nur das Beste.torrent
 Торрент: Платиновая раздача  Зарегистрирован
 
Скачать


 Зарегистрирован:   01 Окт 2009 09:35:18
 Размер:   587 MB  (
 Рейтинг:   4,7 (Голосов: 11)
 Поблагодарили:   73
 Проверка:   Оформление проверено модератором 04 Окт 2009 19:10:25
Как cкачать  ·  Как раздать  ·  Правильно оформить  ·  Поднять ратио!  
Показать сообщения:   
Начать новую тему   Ответить на тему    Торрент-трекер NNM-Club -> Pop -> Disco, Italo-Disco, Euro-Disco, Hi-NRG (Lossless) Часовой пояс: GMT + 3
Страница 1 из 1