Классический форум-трекер
canvas not supported
Нас вместе: 4 147 307

Первая передача на НТВ. Автомобильная передача (31.01.2020) SATRip


 
 
RSS
Начать новую тему   Ответить на тему    Торрент-трекер NNM-Club -> Документалистика и Телепередачи -> За рулем
Автор Сообщение
Катюша ®
Мне бы в небо!
Стаж: 8 лет 11 мес.
Сообщений: 727
Ratio: 229.84
Поблагодарили: 65524
100%
witch.png
Первая передача на НТВ. Автомобильная передача (31.01.2020) SATRip

Телекомпания: НТВ
Жанр: Автопередача

Ведущий: Алексей Куличков

Описание:
Платная автостоянка: за что владельцы машин платят и чего автостоянка никому не гарантирует? Новые правила: что должно быть в аптечке и чем рискует водитель, если туда заглянет инспектор? Гидроудар: гарантийный случай, страховой или несчастный? Продолжение истории о смертельном ДТП, в которой замешан хорек. Какой приговор вынес суд?

Релиз от: -=FOX=-
Продолжительность: 00:24:08
Качество видео: SATRip

Видео: XviD, 720x400, 1800 Kbps
Аудио: MP3, 2 ch, 128 Kbps

General
Complete name : Pervaya.peredacha.(2021.01.31).SATRip.avi
Format : AVI
Format/Info : Audio Video Interleave
File size : 335 MiB
Duration : 24 min 8 s
Overall bit rate : 1 937 kb/s
Writing application : VirtualDubMod 1.5.10.3 | www.virtualdub-fr.org || (build 2550/release)
Writing library : VirtualDubMod build 2550/release

Video
ID : 0
Format : MPEG-4 Visual
Format profile : Advanced Simple@L5
Format settings : BVOP2
Format settings, BVOP : 2
Format settings, QPel : No
Format settings, GMC : No warppoints
Format settings, Matrix : Default (H.263)
Codec ID : XVID
Codec ID/Hint : XviD
Duration : 24 min 8 s
Bit rate : 1 800 kb/s
Width : 720 pixels
Height : 400 pixels
Display aspect ratio : 16:9
Frame rate : 25.000 FPS
Color space : YUV
Chroma subsampling : 4:2:0
Bit depth : 8 bits
Scan type : Progressive
Compression mode : Lossy
Bits/(Pixel*Frame) : 0.250
Stream size : 311 MiB (93%)
Writing library : XviD 1.2.1 (UTC 2008-12-04)

Audio
ID : 1
Format : MPEG Audio
Format version : Version 1
Format profile : Layer 3
Codec ID : 55
Codec ID/Hint : MP3
Duration : 24 min 8 s
Bit rate mode : Constant
Bit rate : 128 kb/s
Channel(s) : 1 channel
Sampling rate : 32.0 kHz
Frame rate : 27.778 FPS (1152 SPF)
Compression mode : Lossy
Stream size : 22.1 MiB (7%)
Alignment : Aligned on interleaves
Interleave, duration : 40 ms (1.00 video frame)
Interleave, preload duratio : 504 ms
Writing library : LAME3.99r
Encoding settings : -m m -V 4 -q 2 -lowpass 16 -b 128

Скриншоты:


Все одноименные релизы в Клубе
Время раздачи: 24/7. До первых 5 скачавших.
[NNMClub.to]_Pervaya.peredacha.(2021.01.31).SATRip.avi.torrent
 Торрент: Платиновая раздача  Зарегистрирован
 
Скачать


Примагнититься
 Зарегистрирован:   31 Янв 2021 08:27:26
 Размер:   335 MB  (
 Рейтинг:   4.8 (Голосов: 12)
 Поблагодарили:   46
 Проверка:   Оформление проверено модератором 31 Янв 2021 08:28:16
Как cкачать  ·  Как раздать  ·  Правильно оформить  ·  Поднять ратио!  

_________________
Мальчики, у кого НДФЛ 15% - пишите!
Показать сообщения:   
Начать новую тему   Ответить на тему    Торрент-трекер NNM-Club -> Документалистика и Телепередачи -> За рулем Часовой пояс: GMT + 3
Страница 1 из 1