Классический форум-трекер
canvas not supported
Нас вместе: 4 151 471

Absolute Duo | Абсолютный дуэт [2015, TV, 12 из 12] BDRip 720p raw


 
 
RSS
Начать новую тему   Ответить на тему    Торрент-трекер NNM-Club -> Аниме с субтитрами -> Аниме (HD)
Автор Сообщение
хИНАРИх ®
Uploader 100+
Стаж: 4 года 4 мес.
Сообщений: 504
Ratio: 14K
Раздал: 213 TB
Поблагодарили: 9317
100%
roody.gif
Absolute Duo | Абсолютный дуэт
Жанр: Приключения, фэнтези, романтика, этти
Тип: TВ-сериал
Количество серий: 12 из 12
Продолжительность: 12 серий по 24 минуты
Период выхода: с 04.01.2015 по 22.03.2015
Производство: 8bit
Режиссер: Накаяма Ацуси
Снято по ранобэ: Абсолютный дуэт
Автор оригинала: Хиираги Такуми
Ссылки: World-Art, Ani-DB, Shikimori
Описание: Не зря говорят, что продвинутая наука не отличается от магии. Введение наномашин позволило людям не только повысить силу, скорость и выносливость, но и силой воли вызывать Блейз – чудо-оружие, отражение души владельца. Учиться надо смолоду, и ребята, чей организм принимает наномашины, поступают в боевые спецшколы, где одной из лучших является академия Корё. Именно туда в старшую школу направился Тору Коконоэ – крепкий, но замкнутый парень, решивший стать сильнее, чтобы не допустить повторения трагедии, случившейся в детстве. А дальше начались сюрпризы.

Для начала директор, ехидная «готик лоли», назвавшаяся Сакуей, предложила собравшимся «смахнуться» между собой – поступят лишь победители. Выдержав испытание, парень узнал, что тактической единицей будущего является боевая двойка, а значит, ученики тоже делятся на пары и должны жить и тренироваться вместе. Распределение (якобы) случайное, и Тору в соседки и напарницы досталась среброволосая малышка Юлия из далекой Швеции, которая, кстати, очень обрадовалась сему факту. Вот тут наш герой и понял, что за дело надо браться всерьез, а то вместо смокинга на выпускной деревянный бушлат накинуть придется!
© Hollow, World Art
Качество видео: BDRip
Видео: AVC, 10 bit, 1280x720, ~4086 Kb/s
Аудио: Vorbis, 2ch, 48 KHz, 256 Kb/s | Звук: Японский
Субтитры: Русские
Перевод от: [Dreamers Team]
General
Complete name : [W] Absolute Duo 01 [BDrip 1280x720 x264 Vorbis].mkv
Format : Matroska
Format version : Version 2
File size : 751 MiB
Duration : 23 min 41 s
Overall bit rate mode : Variable
Overall bit rate : 4 430 kb/s
Encoded date : UTC 2015-12-19 00:53:22
Writing application : mkvmerge v2.9.8 ('C'est le bon') built on Aug 13 2009 12:49:06
Writing library : libebml v0.7.7 + libmatroska v0.8.1

Video
ID : 1
Format : AVC
Format/Info : Advanced Video Codec
Format profile : High 10@L4.1
Format settings : CABAC / 9 Ref Frames
Format settings, CABAC : Yes
Format settings, Reference : 9 frames
Codec ID : V_MPEG4/ISO/AVC
Duration : 23 min 41 s
Bit rate : 4 086 kb/s
Width : 1 280 pixels
Height : 720 pixels
Display aspect ratio : 16:9
Frame rate mode : Constant
Frame rate : 23.976 (24000/1001) FPS
Color space : YUV
Chroma subsampling : 4:2:0
Bit depth : 10 bits
Scan type : Progressive
Bits/(Pixel*Frame) : 0.185
Stream size : 692 MiB (92%)
Writing library : x264 core 132 r2309 3b1f1f7
Encoding settings : cabac=1 / ref=9 / deblock=1:-2:-2 / analyse=0x3:0x133 / me=umh / subme=9 / psy=1 / psy_rd=0.90:0.00 / mixed_ref=1 / me_range=24 / chroma_me=1 / trellis=2 / 8x8dct=1 / cqm=0 / deadzone=21,11 / fast_pskip=1 / chroma_qp_offset=-2 / threads=12 / lookahead_threads=2 / sliced_threads=0 / nr=0 / decimate=0 / interlaced=0 / bluray_compat=0 / constrained_intra=0 / bframes=8 / b_pyramid=2 / b_adapt=2 / b_bias=0 / direct=1 / weightb=1 / open_gop=0 / weightp=2 / keyint=250 / keyint_min=23 / scenecut=40 / intra_refresh=0 / rc=crf / mbtree=0 / crf=15.8 / qcomp=0.70 / qpmin=9 / qpmax=40 / qpstep=4 / ip_ratio=1.40 / pb_ratio=1.30 / aq=1:0.90
Default : No
Forced : No

Audio
ID : 2
Format : Vorbis
Format settings, Floor : 1
Codec ID : A_VORBIS
Duration : 23 min 41 s
Bit rate mode : Variable
Bit rate : 256 kb/s
Channel(s) : 2 channels
Sampling rate : 48.0 kHz
Detected bit depth : 16 bits
Compression mode : Lossy
Stream size : 43.4 MiB (6%)
Writing library : libVorbis (Schaufenugget) (20101101 (Schaufenugget))
Language : Japanese
Default : Yes
Forced : No
01. Blaze
02. Duo
03. Avenger
04. Exception
05. Level Up
06. Survive
07. Silver Blonde, Yellow Topaz
08. Selection
09. Rebels
10. Reign Conference
11. Killing Game
12. Absolute Duo


Время раздачи: круглосуточно
[NNMClub.to]_Absolute Duo.torrent
 Торрент:   Зарегистрирован
 
Зарегистрируйтесь и скачайте торрент!
45.4 KB

Примагнититься
 Зарегистрирован:   22 Апр 2021 00:07:04
 Размер:   8.64 GB  (
 Рейтинг:    (Голосов: 5)
 Поблагодарили:   20
 Проверка:   Оформление проверено модератором 22 Апр 2021 00:43:28
Как cкачать  ·  Как раздать  ·  Правильно оформить  ·  Поднять ратио!  
Показать сообщения:   
Начать новую тему   Ответить на тему    Торрент-трекер NNM-Club -> Аниме с субтитрами -> Аниме (HD) Часовой пояс: GMT + 3
Страница 1 из 1