Классический форум-трекер
canvas not supported
Нас вместе: 4 151 136

Tenkuu Shinpan | High-Rise Invasion | Небесное вторжение [2021, Web, 12 из 12] WEBRip 1080p HEVC 10-bit raw


 
 
RSS
Начать новую тему   Ответить на тему    Торрент-трекер NNM-Club -> Аниме с субтитрами -> Аниме (FullHD)
Автор Сообщение
хИНАРИх ®
Uploader 100+
Стаж: 4 года 4 мес.
Сообщений: 496
Ratio: 14K
Раздал: 210.3 TB
Поблагодарили: 9251
100%
roody.gif
Tenkuu Shinpan | High-Rise Invasion | Небесное вторжение
Жанр: Триллер, фантастика
Тип: ONA [Original net animation]
Количество серий: 12 из 12
Продолжительность: 12 серий по 25 минут
Период выхода: 25.02.2021
Производство: Zero-G
Режиссер: Таката Масахиро
Снято по манге: Небесное вторжение
Автор оригинала: Миура Цуйна
Ссылки: World-Art, Ani-DB, Shikimori
Описание: На глазах шестнадцатилетней Юри Хондзё только что незнакомому мужчине раскроили топором голову. В ужасе девушка понимает, что теперь её очередь и странный убийца в маске направляется к ней. Юри, которая ещё секунду назад находилась в родной школе, даже предположить не может, где она очутилась и каким образом. Ясно одно — нужно спасаться. Выбежав в ближайшую дверь, она видит, что находится в высотном здании, где нет людей, а двери, ведущие на нижний этаж, заперты. В поисках помощи Юри, преследуемая маньяком с топором, оказывается на крыше. Перед ней открывается вид на совершенно незнакомый город, где есть другие многоэтажки, крыши которых соединены подвесными мостами, и другие маньяки в масках.
Слабая девушка без оружия и сверхспособностей, может рассчитывать только на собственную сообразительность и желание выжить. Ну, и разве что на удачу, которая, как известно, тоже далеко не маловажный фактор. Узнав, что её брат Рика тоже угодил в этот опасный мир, Юри набирается храбрости бороться за выживание и решает найти его, чтобы вместе выбраться из этого чудовищного места. © Gerasya
Качество видео: WEBRip
Видео: HEVC, 10 bit, 1920x1080, ~4713 Kb/s
Аудио: ACC, 2 ch, 48 KHz, 128 Kb/s | Звук: Японский
Субтитры: Русские, Английские
Перевод от: [Netflix]
General
Complete name : [Erai-raws] Tenkuu Shinpan - 01 [1080p HEVC][Multiple Subtitle].mkv
Format : Matroska
Format version : Version 4
File size : 850 MiB
Duration : 24 min 28 s
Overall bit rate : 4 854 kb/s
Encoded date : UTC 2021-02-27 08:48:24
Writing application : mkvmerge v51.0.0 ('I Wish') 64-bit
Writing library : libebml v1.4.0 + libmatroska v1.6.2
Attachments : OpenSans-Italic.ttf / OpenSans-Light.ttf / OpenSans-Regular.ttf / OpenSans-Semibold.ttf / AdobeArabic-Bold.otf

Video
ID : 1
Format : HEVC
Format/Info : High Efficiency Video Coding
Format profile : Main 10@L5@High
Codec ID : V_MPEGH/ISO/HEVC
Duration : 24 min 28 s
Bit rate : 4 713 kb/s
Width : 1 920 pixels
Height : 1 080 pixels
Display aspect ratio : 16:9
Frame rate mode : Constant
Frame rate : 23.976 (24000/1001) FPS
Color space : YUV
Chroma subsampling : 4:2:0
Bit depth : 10 bits
Bits/(Pixel*Frame) : 0.095
Stream size : 825 MiB (97%)
Writing library : x265 3.4+13-g57022ba54:[Windows][MSVC 1928][64 bit] 10bit
Encoding settings : cpuid=1111039 / frame-threads=5 / numa-pools=32 / wpp / pmode / pme / no-psnr / no-ssim / log-level=2 / csv / csv-log-level=0 / input-csp=1 / input-res=1920x1080 / interlace=0 / total-frames=35210 / level-idc=50 / high-tier=1 / uhd-bd=0 / ref=6 / no-allow-non-conformance / no-repeat-headers / annexb / no-aud / no-hrd / info / hash=0 / no-temporal-layers / open-gop / min-keyint=1 / keyint=500 / gop-lookahead=0 / bframes=16 / b-adapt=2 / b-pyramid / bframe-bias=0 / rc-lookahead=80 / lookahead-slices=0 / scenecut=40 / hist-scenecut=0 / radl=0 / no-splice / no-intra-refresh / ctu=64 / min-cu-size=8 / no-rect / no-amp / max-tu-size=32 / tu-inter-depth=4 / tu-intra-depth=4 / limit-tu=0 / rdoq-level=2 / dynamic-rd=0.00 / no-ssim-rd / signhide / no-tskip / nr-intra=0 / nr-inter=0 / no-constrained-intra / no-strong-intra-smoothing / max-merge=5 / limit-refs=1 / no-limit-modes / me=3 / subme=7 / merange=57 / temporal-mvp / no-frame-dup / no-hme / weightp / weightb / analyze-src-pics / deblock=-1:-1 / no-sao / no-sao-non-deblock / rd=6 / selective-sao=0 / no-early-skip / no-rskip / no-fast-intra / no-tskip-fast / no-cu-lossless / b-intra / no-splitrd-skip / rdpenalty=0 / psy-rd=2.00 / psy-rdoq=2.00 / no-rd-refine / no-lossless / cbqpoffs=-2 / crqpoffs=-2 / rc=crf / crf=20.0 / qcomp=0.70 / qpstep=4 / stats-write=0 / stats-read=0 / vbv-maxrate=100000 / vbv-bufsize=100000 / vbv-init=0.9 / crf-max=0.0 / crf-min=0.0 / ipratio=1.40 / pbratio=1.30 / aq-mode=3 / aq-strength=0.90 / cutree / zone-count=0 / no-strict-cbr / qg-size=32 / no-rc-grain / qpmax=69 / qpmin=0 / no-const-vbv / sar=0 / overscan=0 / videoformat=5 / range=0 / colorprim=1 / transfer=1 / colormatrix=1 / chromaloc=0 / display-window=0 / cll=0,0 / min-luma=0 / max-luma=1023 / log2-max-poc-lsb=8 / vui-timing-info / vui-hrd-info / slices=1 / no-opt-qp-pps / no-opt-ref-list-length-pps / no-multi-pass-opt-rps / scenecut-bias=0.05 / hist-threshold=0.01 / no-opt-cu-delta-qp / no-aq-motion / no-hdr10 / no-hdr10-opt / no-dhdr10-opt / no-idr-recovery-sei / analysis-reuse-level=0 / analysis-save-reuse-level=0 / analysis-load-reuse-level=0 / scale-factor=0 / refine-intra=4 / refine-inter=0 / refine-mv=3 / refine-ctu-distortion=0 / no-limit-sao / ctu-info=0 / no-lowpass-dct / refine-analysis-type=0 / copy-pic=1 / max-ausize-factor=1.0 / dynamic-refine / no-single-sei / no-hevc-aq / no-svt / no-field / qp-adaptation-range=1.00 / no-scenecut-aware-qpconformance-window-offsets / right=0 / bottom=0 / decoder-max-rate=0
Language : Japanese
Default : Yes
Forced : No
Color range : Limited
Color primaries : BT.709
Transfer characteristics : BT.709
Matrix coefficients : BT.709

Audio
ID : 2
Format : AAC LC SBR
Format/Info : Advanced Audio Codec Low Complexity with Spectral Band Replication
Commercial name : HE-AAC
Format settings : Explicit
Codec ID : A_AAC-2
Duration : 24 min 28 s
Bit rate : 128 kb/s
Channel(s) : 2 channels
Channel layout : L R
Sampling rate : 48.0 kHz
Frame rate : 23.438 FPS (2048 SPF)
Compression mode : Lossy
Stream size : 22.4 MiB (3%)
Language : Japanese
Default : Yes
Forced : No

Text #1
ID : 3
Format : ASS
Codec ID : S_TEXT/ASS
Codec ID/Info : Advanced Sub Station Alpha
Duration : 22 min 7 s
Bit rate : 88 b/s
Count of elements : 265
Compression mode : Lossless
Stream size : 14.3 KiB (0%)
Language : English
Default : Yes
Forced : No

Text #2
ID : 4
Format : ASS
Codec ID : S_TEXT/ASS
Codec ID/Info : Advanced Sub Station Alpha
Duration : 23 min 4 s
Bit rate : 130 b/s
Count of elements : 410
Compression mode : Lossless
Stream size : 22.0 KiB (0%)
Language : English
Default : No
Forced : No

Text #3
ID : 5
Format : ASS
Codec ID : S_TEXT/ASS
Codec ID/Info : Advanced Sub Station Alpha
Duration : 23 min 38 s
Bit rate : 120 b/s
Count of elements : 266
Compression mode : Lossless
Stream size : 20.8 KiB (0%)
Language : Arabic
Default : No
Forced : No

Text #4
ID : 6
Format : ASS
Codec ID : S_TEXT/ASS
Codec ID/Info : Advanced Sub Station Alpha
Duration : 23 min 38 s
Bit rate : 101 b/s
Count of elements : 266
Compression mode : Lossless
Stream size : 17.6 KiB (0%)
Language : Russian
Default : No
Forced : No

Text #5
ID : 7
Format : ASS
Codec ID : S_TEXT/ASS
Codec ID/Info : Advanced Sub Station Alpha
Duration : 23 min 38 s
Bit rate : 86 b/s
Count of elements : 268
Compression mode : Lossless
Stream size : 14.9 KiB (0%)
Language : Spanish
Default : No
Forced : No

Text #6
ID : 8
Format : ASS
Codec ID : S_TEXT/ASS
Codec ID/Info : Advanced Sub Station Alpha
Duration : 23 min 38 s
Bit rate : 84 b/s
Count of elements : 266
Compression mode : Lossless
Stream size : 14.7 KiB (0%)
Language : Spanish
Default : No
Forced : No

Text #7
ID : 9
Format : ASS
Codec ID : S_TEXT/ASS
Codec ID/Info : Advanced Sub Station Alpha
Duration : 23 min 38 s
Bit rate : 81 b/s
Count of elements : 263
Compression mode : Lossless
Stream size : 14.1 KiB (0%)
Language : Portuguese
Default : No
Forced : No

Text #8
ID : 10
Format : ASS
Codec ID : S_TEXT/ASS
Codec ID/Info : Advanced Sub Station Alpha
Duration : 23 min 38 s
Bit rate : 84 b/s
Count of elements : 265
Compression mode : Lossless
Stream size : 14.7 KiB (0%)
Language : Portuguese
Default : No
Forced : No

Text #9
ID : 11
Format : ASS
Codec ID : S_TEXT/ASS
Codec ID/Info : Advanced Sub Station Alpha
Duration : 23 min 38 s
Bit rate : 85 b/s
Count of elements : 266
Compression mode : Lossless
Stream size : 14.8 KiB (0%)
Language : German
Default : No
Forced : No

Text #10
ID : 12
Format : ASS
Codec ID : S_TEXT/ASS
Codec ID/Info : Advanced Sub Station Alpha
Duration : 23 min 38 s
Bit rate : 86 b/s
Count of elements : 266
Compression mode : Lossless
Stream size : 15.0 KiB (0%)
Language : French
Default : No
Forced : No

Text #11
ID : 13
Format : ASS
Codec ID : S_TEXT/ASS
Codec ID/Info : Advanced Sub Station Alpha
Duration : 23 min 38 s
Bit rate : 82 b/s
Count of elements : 266
Compression mode : Lossless
Stream size : 14.2 KiB (0%)
Language : Italian
Default : No
Forced : No

Text #12
ID : 14
Format : ASS
Codec ID : S_TEXT/ASS
Codec ID/Info : Advanced Sub Station Alpha
Duration : 23 min 38 s
Bit rate : 79 b/s
Count of elements : 266
Compression mode : Lossless
Stream size : 13.9 KiB (0%)
Language : Polish
Default : No
Forced : No

Text #13
ID : 15
Format : ASS
Codec ID : S_TEXT/ASS
Codec ID/Info : Advanced Sub Station Alpha
Duration : 23 min 38 s
Bit rate : 74 b/s
Count of elements : 266
Compression mode : Lossless
Stream size : 12.9 KiB (0%)
Language : Dutch
Default : No
Forced : No

Text #14
ID : 16
Format : ASS
Codec ID : S_TEXT/ASS
Codec ID/Info : Advanced Sub Station Alpha
Duration : 23 min 38 s
Bit rate : 80 b/s
Count of elements : 266
Compression mode : Lossless
Stream size : 14.0 KiB (0%)
Language : Norwegian Bokmal
Default : No
Forced : No

Text #15
ID : 17
Format : ASS
Codec ID : S_TEXT/ASS
Codec ID/Info : Advanced Sub Station Alpha
Duration : 23 min 38 s
Bit rate : 82 b/s
Count of elements : 267
Compression mode : Lossless
Stream size : 14.3 KiB (0%)
Language : Finnish
Default : No
Forced : No

Text #16
ID : 18
Format : ASS
Codec ID : S_TEXT/ASS
Codec ID/Info : Advanced Sub Station Alpha
Duration : 23 min 38 s
Bit rate : 81 b/s
Count of elements : 266
Compression mode : Lossless
Stream size : 14.0 KiB (0%)
Language : Turkish
Default : No
Forced : No

Text #17
ID : 19
Format : ASS
Codec ID : S_TEXT/ASS
Codec ID/Info : Advanced Sub Station Alpha
Duration : 23 min 38 s
Bit rate : 82 b/s
Count of elements : 266
Compression mode : Lossless
Stream size : 14.3 KiB (0%)
Language : Swedish
Default : No
Forced : No

Text #18
ID : 20
Format : ASS
Codec ID : S_TEXT/ASS
Codec ID/Info : Advanced Sub Station Alpha
Duration : 23 min 38 s
Bit rate : 116 b/s
Count of elements : 266
Compression mode : Lossless
Stream size : 20.2 KiB (0%)
Language : Greek
Default : No
Forced : No

Text #19
ID : 21
Format : ASS
Codec ID : S_TEXT/ASS
Codec ID/Info : Advanced Sub Station Alpha
Duration : 23 min 38 s
Bit rate : 112 b/s
Count of elements : 266
Compression mode : Lossless
Stream size : 19.4 KiB (0%)
Language : Hebrew
Default : No
Forced : No

Text #20
ID : 22
Format : ASS
Codec ID : S_TEXT/ASS
Codec ID/Info : Advanced Sub Station Alpha
Duration : 23 min 38 s
Bit rate : 80 b/s
Count of elements : 266
Compression mode : Lossless
Stream size : 13.9 KiB (0%)
Language : Romanian
Default : No
Forced : No

Text #21
ID : 23
Format : ASS
Codec ID : S_TEXT/ASS
Codec ID/Info : Advanced Sub Station Alpha
Duration : 23 min 38 s
Bit rate : 82 b/s
Count of elements : 266
Compression mode : Lossless
Stream size : 14.4 KiB (0%)
Language : Indonesian
Default : No
Forced : No

Text #22
ID : 24
Format : ASS
Codec ID : S_TEXT/ASS
Codec ID/Info : Advanced Sub Station Alpha
Duration : 23 min 38 s
Bit rate : 160 b/s
Count of elements : 266
Compression mode : Lossless
Stream size : 27.8 KiB (0%)
Language : Thai
Default : No
Forced : No

Text #23
ID : 25
Format : ASS
Codec ID : S_TEXT/ASS
Codec ID/Info : Advanced Sub Station Alpha
Duration : 23 min 38 s
Bit rate : 110 b/s
Count of elements : 270
Compression mode : Lossless
Stream size : 19.1 KiB (0%)
Language : Korean
Default : No
Forced : No

Text #24
ID : 26
Format : ASS
Codec ID : S_TEXT/ASS
Codec ID/Info : Advanced Sub Station Alpha
Duration : 23 min 38 s
Bit rate : 81 b/s
Count of elements : 266
Compression mode : Lossless
Stream size : 14.2 KiB (0%)
Language : Danish
Default : No
Forced : No

Text #25
ID : 27
Format : ASS
Codec ID : S_TEXT/ASS
Codec ID/Info : Advanced Sub Station Alpha
Duration : 24 min 23 s
Bit rate : 133 b/s
Count of elements : 354
Compression mode : Lossless
Stream size : 23.8 KiB (0%)
Language : Japanese
Default : No
Forced : No

Text #26
ID : 28
Format : ASS
Codec ID : S_TEXT/ASS
Codec ID/Info : Advanced Sub Station Alpha
Duration : 24 min 28 s
Bit rate : 90 b/s
Count of elements : 260
Compression mode : Lossless
Stream size : 16.2 KiB (0%)
Language : Chinese
Default : No
Forced : No

Text #27
ID : 29
Format : ASS
Codec ID : S_TEXT/ASS
Codec ID/Info : Advanced Sub Station Alpha
Duration : 24 min 28 s
Bit rate : 90 b/s
Count of elements : 257
Compression mode : Lossless
Stream size : 16.3 KiB (0%)
Language : Chinese
Default : No
Forced : No

Text #28
ID : 30
Format : ASS
Codec ID : S_TEXT/ASS
Codec ID/Info : Advanced Sub Station Alpha
Duration : 23 min 38 s
Bit rate : 120 b/s
Count of elements : 266
Compression mode : Lossless
Stream size : 20.9 KiB (0%)
Language : Vietnamese
Default : No
Forced : No

Text #29
ID : 31
Format : ASS
Codec ID : S_TEXT/ASS
Codec ID/Info : Advanced Sub Station Alpha
Duration : 23 min 38 s
Bit rate : 103 b/s
Count of elements : 266
Compression mode : Lossless
Stream size : 17.9 KiB (0%)
Language : Czech
Default : No
Forced : No

Text #30
ID : 32
Format : ASS
Codec ID : S_TEXT/ASS
Codec ID/Info : Advanced Sub Station Alpha
Duration : 23 min 38 s
Bit rate : 104 b/s
Count of elements : 265
Compression mode : Lossless
Stream size : 18.1 KiB (0%)
Language : Hungarian
Default : No
Forced : No

Text #31
ID : 33
Format : ASS
Codec ID : S_TEXT/ASS
Codec ID/Info : Advanced Sub Station Alpha
Duration : 24 min 28 s
Bit rate : 76 b/s
Count of elements : 267
Compression mode : Lossless
Stream size : 13.7 KiB (0%)
Language : Croatian
Default : No
Forced : No

Text #32
ID : 34
Format : ASS
Codec ID : S_TEXT/ASS
Codec ID/Info : Advanced Sub Station Alpha
Duration : 23 min 38 s
Bit rate : 81 b/s
Count of elements : 266
Compression mode : Lossless
Stream size : 14.2 KiB (0%)
Language : Malay
Default : No
Forced : No
01. I Just Don`t Get This World
02. I`ve Found a New Goal
03. I`m Sorry, Mayuko Nise
04. I Won`t Give in to This World
05. That`s an Incredible Ultimate Weapon
06. If I Become a Perfect God
07. I Will End This Realm
08. I`ve Cast Off My Humanity, But That`s Fine
09. Which Of Us Will Live a Cool Live?
10. Our Enemy Is One Who Desires Chaos
11. I Am Justice!
12. This Is a High-Rise Invasion



Время раздачи: круглосуточно
[NNMClub.to]_Tenkuu Shinpan -- [Nebesnoe vtorzhenie].torrent
 Торрент:   Зарегистрирован
 
Зарегистрируйтесь и скачайте торрент!
39.6 KB
Free Leech
Примагнититься
 Зарегистрирован:   02 Май 2021 17:00:56
 Размер:   7.65 GB  (
 Рейтинг:    (Голосов: 5)
 Поблагодарили:   18
 Проверка:   Оформление проверено модератором 02 Май 2021 23:03:17
Как cкачать  ·  Как раздать  ·  Правильно оформить  ·  Поднять ратио!  
alexseed
Стаж: 10 лет 9 мес.
Сообщений: 166
Ratio: 15.976
5.9%
ukraine.gif
Хммм, напомнило одну серию из "Черного зеркала"

_________________
-----------
nobody expects the spanish inquisition!
Показать сообщения:   
Начать новую тему   Ответить на тему    Торрент-трекер NNM-Club -> Аниме с субтитрами -> Аниме (FullHD) Часовой пояс: GMT + 3
Страница 1 из 1