Классический форум-трекер
canvas not supported
Нас вместе: 4 151 178

Ichiban Ushiro no Daimaou | Demon King Daimao | Князь тьмы с задней парты [2010, TV, 12 из 12 + 6 SP] BDRip 720p 10-bit raw


 
 
RSS
Начать новую тему   Ответить на тему    Торрент-трекер NNM-Club -> Аниме с субтитрами -> Аниме (HD)
Автор Сообщение
хИНАРИх ®
Uploader 100+
Стаж: 4 года 4 мес.
Сообщений: 489
Ratio: 14K
Раздал: 208.9 TB
Поблагодарили: 9179
100%
roody.gif
Ichiban Ushiro no Daimaou | Demon King Daimao | Князь тьмы с задней парты
Жанр: Приключения, фэнтези, комедия, этти
Тип: TВ-сериал
Количество серий: 12 из 12
Продолжительность: 12 серий по 24 минуты + 6 special по 3 минуты
Период выхода: с 03.04.2010 по 19.06.2010
Производство: Artland
Режиссер: Ватанабэ Такаси
Снято по ранобэ: Ichiban Ushiro no Daimaou
Автор оригинала: Мидзуки Сётаро
Ссылки: World-Art, Ani-DB, Shikimori
Описание: Очередной альтернативный мир слияния магии и высоких технологий – вовсе не идиллия. Не так давно могучий темный маг собрал войско демонов и чуть не уничтожил существующий порядок. От отступника смогли избавиться, но его именем до сих пор пугают детей. Впрочем, жить с тех пор стало легче, и вот Акуто Сай, талантливый сирота, выросший в церковном приюте, поступает в магическую академию Константа. Честный и благородный Сай горит желанием принести пользу людям и, раз уж вырос в лоне церкви, мечтает стать не меньше, чем Первосвященником. Осталась самая малость – пройти испытание магическим оракулом, который, изучив претендента, безошибочно определяет его призвание и профессию. Вердикт оракула оказался прост – в академию прибыл будущий Владыка Демонов!

Вот такая судьба ждала несчастного парня. Впрочем, отойдя от шока, главный герой постепенно понял, что люди в академии далеки от слепого фанатизма, а кое для кого он неожиданно «вошел в авторитет». Учителя дали понять, что каждый должен сам решать свои проблемы, причем рамки допустимого в Константе весьма широки. Ну а что до девушек – они в любом мире тянутся к «плохим парням», так что скучная жизнь Акуто не грозила. Главное, чтобы среди бесконечной череды интриг, магических дуэлей и борьбы за жизнь герою хватило времени разобраться – кто он, и что с ним, собственно, на самом деле происходит? © Hollow, World Art
Качество видео: BDRip
Видео: AVC, 10 bit, 1280x720, ~3638 Kb/s
Аудио: Vorbis, 2ch, 48 KHz, 256 Kb/s | Звук: Японский
Субтитры: Русские
Перевод от: [Antravoco]
General
Complete name : [Winter] Ichiban Ushiro no Daimaou 01 [BDrip 1280x720 x264 Vorbis].mkv
Format : Matroska
Format version : Version 2
File size : 673 MiB
Duration : 23 min 40 s
Overall bit rate mode : Variable
Overall bit rate : 3 973 kb/s
Encoded date : UTC 2013-03-27 14:25:45
Writing application : mkvmerge v2.9.8 ('C'est le bon') built on Aug 13 2009 12:49:06
Writing library : libebml v0.7.7 + libmatroska v0.8.1

Video
ID : 1
Format : AVC
Format/Info : Advanced Video Codec
Format profile : High 10@L4.1
Format settings : CABAC / 9 Ref Frames
Format settings, CABAC : Yes
Format settings, Reference : 9 frames
Codec ID : V_MPEG4/ISO/AVC
Duration : 23 min 40 s
Bit rate : 3 638 kb/s
Width : 1 280 pixels
Height : 720 pixels
Display aspect ratio : 16:9
Frame rate mode : Constant
Frame rate : 23.976 (24000/1001) FPS
Color space : YUV
Chroma subsampling : 4:2:0
Bit depth : 10 bits
Scan type : Progressive
Bits/(Pixel*Frame) : 0.165
Stream size : 616 MiB (92%)
Writing library : x264 core 129 r2230 1cffe9f
Encoding settings : cabac=1 / ref=9 / deblock=1:-2:-2 / analyse=0x3:0x133 / me=umh / subme=9 / psy=1 / psy_rd=0.90:0.00 / mixed_ref=1 / me_range=24 / chroma_me=1 / trellis=2 / 8x8dct=1 / cqm=0 / deadzone=21,11 / fast_pskip=1 / chroma_qp_offset=-2 / threads=6 / lookahead_threads=1 / sliced_threads=0 / nr=0 / decimate=0 / interlaced=0 / bluray_compat=0 / constrained_intra=0 / bframes=8 / b_pyramid=2 / b_adapt=2 / b_bias=0 / direct=1 / weightb=1 / open_gop=0 / weightp=2 / keyint=250 / keyint_min=23 / scenecut=40 / intra_refresh=0 / rc=crf / mbtree=0 / crf=16.0 / qcomp=0.70 / qpmin=9 / qpmax=40 / qpstep=4 / ip_ratio=1.40 / pb_ratio=1.30 / aq=1:0.90
Default : No
Forced : No

Audio
ID : 2
Format : Vorbis
Format settings, Floor : 1
Codec ID : A_VORBIS
Duration : 23 min 40 s
Bit rate mode : Variable
Bit rate : 256 kb/s
Channel(s) : 2 channels
Sampling rate : 48.0 kHz
Detected bit depth : 16 bits
Compression mode : Lossy
Stream size : 43.4 MiB (6%)
Writing library : libVorbis (Schaufenugget) (20101101 (Schaufenugget))
Language : Japanese
Default : Yes
Forced : No
TV:
01. The Devil King is Born!
02. The Odd Observer
03. The Upperclassman Who`s a Bit Scary
04. The Isolation Cell is Fun
05. Beware of the Underground Maze
06. Let`s Go to School by the Sea!
07. The Legendary Hero Appears!
08. Do You Have a Crush
09. The Marriage Interview Chaos
10. Sai Akuto`s Imperial Capital War
11. The Girls` Final Battle
12. The End is Perfect

Specials:
01. Thump! A Swimming Tournament with Girls Everywhere!
02. Junko`s Exciting Ninja Scroll!
03. Keina`s Apron of Love
04. Disaster Survival
05. Korone`s Report. Or Rather, Sai Akuto`s Uneventful, Daily Life
06. The Student Council`s in Ecstacy



Время раздачи: круглосуточно
[NNMClub.to]_Ichiban Ushiro no Daimaou -- [Knyaz' t'myi s zadney partyi].torrent
 Торрент:   Зарегистрирован
 
Зарегистрируйтесь и скачайте торрент!
43.8 KB
Free Leech
Примагнититься
 Зарегистрирован:   03 Май 2021 09:30:11
 Размер:   7.86 GB  (
 Рейтинг:    (Голосов: 1)
 Поблагодарили:   14
 Проверка:   Оформление проверено модератором 06 Май 2021 02:24:40
Как cкачать  ·  Как раздать  ·  Правильно оформить  ·  Поднять ратио!  
Показать сообщения:   
Начать новую тему   Ответить на тему    Торрент-трекер NNM-Club -> Аниме с субтитрами -> Аниме (HD) Часовой пояс: GMT + 3
Страница 1 из 1