Классический форум-трекер
canvas not supported
Нас вместе: 4 083 346
Платим за отзывы

Властелины времени / Les Maitres Du Temps (1982) DVDRip [H.264]


 
 
RSS
Начать новую тему   Ответить на тему    Торрент-трекер NNM-Club -> Мультфильмы -> Зарубежные Мультфильмы (HD*Rip/LQ, DVDRip, SATRip, VHSRip)
Автор Сообщение
Starlight77 ®
Стаж: 10 лет 2 мес.
Сообщений: 53
Ratio: 32,866
Поблагодарили: 2976
100%
Откуда: planet Earth
Властелины времени / Les Maitres Du Temps (1982) DVDRip
Производство: Франция, Швейцария, Германия (ФРГ), Великобритания, Венгрия
Жанр: Анимационный, Приключения, Фантастика

Режиссер: Рене Лалу / Ren Laloux
Персонажи: Джаффар, Силбад, Пьель, Маттон, Белль, Юла, Джад, Ксул.

Описание:
63-ий сектор Галактики. Семилетний мальчик Пьель попал в пустыню планеты Мортис, уцелев после атаки гигантских ос. На вызов о помощи откликнулся друг его отца Джаффар. Он держит контакт с Пьелем и спешит через космическое пространство к нему на помощь. Джаффар еще не знает, что ему придется столкнуться с Властелинами Времени, и спасать нужно будет не только ребенка, но и его родную планету...
Невероятно красивый мультфильм, футуристический сюжет! Редкий фильм сделан настолько серьезно и профессионально, восхитительно и волнующе, как эта культовая лента французской анимации восьмидесятых годов.



Перевод: Полный дубляж (Советский 1986г.)
Роли дублировали: Вадим Спиридонов, Всеволод Ларионов, Ольга Гаспарова, Алексей Инжеватов, Мария Виноградова

Продолжительность: 01:15:02
Качество видео: DVDRip

Видеокодек: MPEG-4 (AVC/H.264)
Битрейт видео: ~ 2 000 Kbps
Размер кадра: 688x576 (анаморф 982x576)
Аудиокодек: AAC-LC 5.1
Битрейт аудио: 192 Kbps VBR

General
Complete name : Vlasteliny_vremeni_DVDRip_(H.264)_[nnm-club.me].mp4
Format : MPEG-4
Format profile : Base Media
Codec ID : isom
File size : 1.15 GiB
Duration : 1h 15mn
Overall bit rate : 2 198 Kbps
Movie name : Властелины.mp4
Performer : Avidemux
Screenplay by : Avidemux
Writing application : Lavf52.32.0

Video
ID : 1
Format : AVC
Format/Info : Advanced Video Codec
Format profile : High@L3.1
Format settings, CABAC : Yes
Format settings, ReFrames : 10 frames
Codec ID : avc1
Codec ID/Info : Advanced Video Coding
Duration : 1h 15mn
Bit rate mode : Variable
Bit rate : 2 000 Kbps
Width : 688 pixels
Height : 576 pixels
Display aspect ratio : 1.194
Original display aspect ratio : 16:9
Frame rate mode : Constant
Frame rate : 20.000 fps
Resolution : 24 bits
Colorimetry : 4:2:0
Scan type : Progressive
Bits/(Pixel*Frame) : 0.252
Stream size : 1.05 GiB (91%)
Writing library : x264 core 67 r1145M d2e1e1c
Encoding settings : cabac=1 / ref=10 / deblock=1:2:0 / analyse=0x1:0x111 / me=umh / subme=6 / psy_rd=1.0:0.2 / mixed_ref=0 / me_range=16 / chroma_me=1 / trellis=1 / 8x8dct=0 / cqm=1 / deadzone=21,11 / chroma_qp_offset=-3 / threads=3 / nr=0 / decimate=1 / mbaff=0 / bframes=3 / b_pyramid=1 / b_adapt=1 / b_bias=0 / direct=1 / wpredb=1 / keyint=250 / keyint_min=25 / scenecut=40 / rc=2pass / bitrate=2000 / ratetol=1.0 / qcomp=0.60 / qpmin=10 / qpmax=51 / qpstep=4 / cplxblur=20.0 / qblur=0.5 / ip_ratio=1.40 / pb_ratio=1.30 / aq=1:1.00

Audio
ID : 2
Format : AAC
Format/Info : Advanced Audio Codec
Format version : Version 4
Format profile : LC
Format settings, SBR : No
Codec ID : 40
Duration : 1h 15mn
Bit rate mode : Variable
Bit rate : 192 Kbps
Channel(s) : 6 channels
Channel positions : Front: L C R, Rear: L R, LFE
Sampling rate : 48.0 KHz
Resolution : 16 bits
Stream size : 103 MiB (9%)
Скриншоты:


Время раздачи: ~ c 09:00 до 24:00
Vlasteliny_vremeni_DVDRip_(H.264)_[NNM-Club.ru].mp4.torrent
 Торрент: Платиновая раздача  Зарегистрирован
 
Скачать


 Зарегистрирован:   06 Ноя 2009 23:52:17
 Размер:   1,15 GB  (
 Рейтинг:   4,8 (Голосов: 63)
 Поблагодарили:   278
 Проверка:   Оформление проверено модератором 18 Ноя 2009 11:24:10
Как cкачать  ·  Как раздать  ·  Правильно оформить  ·  Поднять ратио!  
a1ex
Стаж: 13 лет 2 мес.
Сообщений: 14
Ratio: 5,343
8.05%
значительный рассинхрон и объекты двигаются рывками :(
ma huang
Стаж: 10 лет 6 мес.
Сообщений: 79
Ratio: 97,18
Раздал: 7,432 TB
Поблагодарили: 83
100%
Цитата:
..не верьте ему! это глот с планеты катрук!

...всё не так, с качеством изображения всё хорошо ;) может на взгляд профессионала видеомонтажника где-то "горизонт завален люто, бешенно!", но для обычного ностальгирующего зрителя или к примеру, его детёнка всё просто отлично :)
AddMin
Стаж: 12 лет 6 мес.
Сообщений: 56
Ratio: 11,328
100%
russia.gif
Ностальжи...
Спасибо!
surgutmosap
Стаж: 9 лет 1 мес.
Сообщений: 3
Ratio: 2,135
Раздал: 348 GB
57.14%
russia.gif
мало раздатчиков
vyctorius
 
Стаж: 8 лет 8 мес.
Сообщений: 1511
Ratio: 431,686
Раздал: 47,77 TB
Поблагодарили: 15534
100%
Откуда: чо берется?
pirates.png
Абалденнейший мультик!!! Такая ностальгия... Первый раз смотрела его в кинотеатре прямо перед показом фильма "Враг мой". Впечатлений хватило на всю жизнь. Помню, как я его искала в сети пару лет))) а потом через ишака нашла и скачала.
Рекомендую именно в дублированном советском переводе.
андрей 1971
Стаж: 8 лет 10 мес.
Сообщений: 19
Ratio: 17,705
100%
russia.gif
Огромная благодарность за мультфильм!!! Школьником я раз пять "ходил на него" в кинотеатр.Как встреча с детством.
Catus_Ferus
Стаж: 10 лет 1 мес.
Сообщений: 210
Ratio: 15,415
Поблагодарили: 518
2.83%
stlucia.gif
Это, безусловно, шедевр своего времени. Но и сейчас я глянул его с огромным удовольствием. У меня он есть на DVD - лицензия за $15. Для меня это абсолютный показатель.
Hubilgan
Uploader 100+
Стаж: 9 лет 8 мес.
Сообщений: 341
Ratio: 5719,6
Раздал: 328 TB
100%
ussr.gif
В детстве рядом с нашим домом была организация - кинопрокат. Мы - дети работников и просто с окрестных дворов - смотрели в тамошнем служебном кинозале самыми первыми все шумевшие фильмы того времени. Причем бесплатно. Помню, как после просмотра еще длительное время находился под огромным впечатлением. Изрисовал сценами не один десяток альбомных листов, благо способности позволяли. ))
Огромный респект за ностальжи. Пока есть место на диске, буду висеть на раздаче. )

_________________
Per aspera ad astra
TpuToH
Стаж: 12 лет 10 мес.
Сообщений: 98
Ratio: 31,169
100%
Откуда: Москва
russia.gif
а Властелины времени / Time Masters (Les Maitres Du Temps) (1982) DVDRip чуть-чуть легче.
kl7y5o2
Стаж: 11 лет 8 мес.
Сообщений: 121
Ratio: 14,438
100%
ukraine.gif
и всё-таки, почему рассинхронизация звука?? :/
vovan4
Стаж: 9 лет 8 мес.
Сообщений: 19
Ratio: 17,328
100%
russia.gif
и тут напишу!

Всем, кто искал и не нашел посвящается!
Не найдя сабы по тексту советского дубляжа, наколотил таковые сам. Очень уж сильно по тексту расходятся те, которые от Rusсico, от старого текста. Делюсь!

http://subtitry.ru/subtitles/1048814740/?time-masters
Показать сообщения:   
Начать новую тему   Ответить на тему    Торрент-трекер NNM-Club -> Мультфильмы -> Зарубежные Мультфильмы (HD*Rip/LQ, DVDRip, SATRip, VHSRip) Часовой пояс: GMT + 3
Страница 1 из 1