Классический форум-трекер
canvas not supported
Нас вместе: 4 072 940
Loading...

Gwen Stefani - The Sweet Escape (Special Edition + Bonus Track) (2006) [FLAC|Lossless]<Pop>


 
 
RSS
Начать новую тему   Ответить на тему    Торрент-трекер NNM-Club -> Pop -> Зарубежная поп-музыка (Lossless)
Автор Сообщение
SilverTea ®
Стаж: 10 лет 1 мес.
Сообщений: 82
Ratio: 10K
Раздал: 2,062 TB
Поблагодарили: 1802
100%
Gwen Stefani - The Sweet Escape (2006)
Год: 2006
Жанр: Pop
Продолжительность: 00:50:37

Кодек: FLAC
Тип рипа: tracks + .cue
Битрейт: Lossless

Треклист:
01. Wind It Up
02. The Sweet Escape
03. Orange County Girl
04. Early Winter
05. Now That You Got It
06. 4 in the Morning
07. Yummy
08. Fluorescent
09. Breakin' Up
10. Don't Get It Twisted
11. U Started It
12. Wonderful Life
Bonus Track:
13. Wind It Up (Harajuku Lovers live version)
Код:
Exact Audio Copy V0.99 prebeta 4 from 23. January 2008

EAC extraction logfile from 16. November 2008, 17:14

Gwen Stefani / The Sweet Escape

Used drive  : HL-DT-STDVDRAM GMA-4082N   Adapter: 1  ID: 0

Read mode               : Secure
Utilize accurate stream : Yes
Defeat audio cache      : Yes
Make use of C2 pointers : No

Read offset correction                      : 667
Overread into Lead-In and Lead-Out          : No
Fill up missing offset samples with silence : Yes
Delete leading and trailing silent blocks   : No
Null samples used in CRC calculations       : Yes
Used interface                              : Native Win32 interface for Win NT & 2000
Gap handling                                : Appended to previous track

Used output format              : User Defined Encoder
Selected bitrate                : 320 kBit/s
Quality                         : High
Add ID3 tag                     : No
Command line compressor         : D:\Program Files\FLAC\flac.exe
Additional command line options : -V -8 -T "artist=%a" -T "title=%t" -T "album=%g" -T "date=%y" -T "tracknumber=%n" -T "genre=%m" %s

TOC of the extracted CD

     Track |   Start  |  Length  | Start sector | End sector
    ---------------------------------------------------------
        1  |  0:00.00 |  3:09.44 |         0    |    14218
        2  |  3:09.44 |  4:06.35 |     14219    |    32703
        3  |  7:16.04 |  3:23.54 |     32704    |    47982
        4  | 10:39.58 |  4:44.59 |     47983    |    69341
        5  | 15:24.42 |  2:59.70 |     69342    |    82836
        6  | 18:24.37 |  4:51.08 |     82837    |   104669
        7  | 23:15.45 |  4:57.07 |    104670    |   126951
        8  | 28:12.52 |  4:18.41 |    126952    |   146342
        9  | 32:31.18 |  3:46.73 |    146343    |   163365
       10  | 36:18.16 |  3:37.70 |    163366    |   179710
       11  | 39:56.11 |  3:08.21 |    179711    |   193831
       12  | 43:04.32 |  4:08.74 |    193832    |   212505
       13  | 47:13.31 |  3:24.38 |    212506    |   227843

Track  1

     Filename I:\RIP\Gwen Stefani - 2006 - The Sweet Escape\01 - Wind It Up.wav

     Pre-gap length  0:00:02.00

     Peak level 100.0 %
     Track quality 99.9 %
     Test CRC 3B0008E7
     Copy CRC 3B0008E7
     Copy OK

Track  2

     Filename I:\RIP\Gwen Stefani - 2006 - The Sweet Escape\02 - The Sweet Escape.wav

     Peak level 100.0 %
     Track quality 100.0 %
     Test CRC FAA361F3
     Copy CRC FAA361F3
     Copy OK

Track  3

     Filename I:\RIP\Gwen Stefani - 2006 - The Sweet Escape\03 - Orange County Girl.wav

     Peak level 100.0 %
     Track quality 100.0 %
     Test CRC CED672ED
     Copy CRC CED672ED
     Copy OK

Track  4

     Filename I:\RIP\Gwen Stefani - 2006 - The Sweet Escape\04 - Early Winter.wav

     Peak level 91.5 %
     Track quality 100.0 %
     Test CRC 4511E89F
     Copy CRC 4511E89F
     Copy OK

Track  5

     Filename I:\RIP\Gwen Stefani - 2006 - The Sweet Escape\05 - Now That You Got It.wav

     Peak level 96.6 %
     Track quality 100.0 %
     Test CRC 5F21C9B4
     Copy CRC 5F21C9B4
     Copy OK

Track  6

     Filename I:\RIP\Gwen Stefani - 2006 - The Sweet Escape\06 - 4 In The Morning.wav

     Peak level 100.0 %
     Track quality 100.0 %
     Test CRC 191B7757
     Copy CRC 191B7757
     Copy OK

Track  7

     Filename I:\RIP\Gwen Stefani - 2006 - The Sweet Escape\07 - Yummy.wav

     Peak level 100.0 %
     Track quality 100.0 %
     Test CRC 6933178A
     Copy CRC 6933178A
     Copy OK

Track  8

     Filename I:\RIP\Gwen Stefani - 2006 - The Sweet Escape\08 - Fluorescent.wav

     Pre-gap length  0:00:00.40

     Peak level 97.3 %
     Track quality 100.0 %
     Test CRC 9D0AE6A2
     Copy CRC 9D0AE6A2
     Copy OK

Track  9

     Filename I:\RIP\Gwen Stefani - 2006 - The Sweet Escape\09 - Breakin' Up.wav

     Peak level 100.0 %
     Track quality 100.0 %
     Test CRC E99E262A
     Copy CRC E99E262A
     Copy OK

Track 10

     Filename I:\RIP\Gwen Stefani - 2006 - The Sweet Escape\10 - Don't Get It Twisted.wav

     Pre-gap length  0:00:00.46

     Peak level 96.4 %
     Track quality 100.0 %
     Test CRC F1CF6481
     Copy CRC F1CF6481
     Copy OK

Track 11

     Filename I:\RIP\Gwen Stefani - 2006 - The Sweet Escape\11 - U Started It.wav

     Pre-gap length  0:00:01.18

     Peak level 100.0 %
     Track quality 99.9 %
     Test CRC 5A0396FA
     Copy CRC 5A0396FA
     Copy OK

Track 12

     Filename I:\RIP\Gwen Stefani - 2006 - The Sweet Escape\12 - Wonderful Life.wav

     Peak level 94.4 %
     Track quality 100.0 %
     Test CRC E7FBE5F1
     Copy CRC E7FBE5F1
     Copy OK

Track 13

     Filename I:\RIP\Gwen Stefani - 2006 - The Sweet Escape\13 - Wind It Up (Harajuku Lovers Live Version).wav

     Pre-gap length  0:00:10.00

     Peak level 100.0 %
     Track quality 100.0 %
     Test CRC 271ABB08
     Copy CRC 271ABB08
     Copy OK

No errors occurred

End of status report
Код:
AUDIOCHECKER v2.0 beta (build 457) - by Dester - opdester@freemail.hu
~~~~~~~~~~~~~~~~~~~~~~~~~~~~~~~~~~
-=== DO NOT EDIT THIS FILE! ===-

Путь: ...\Gwen Stefani - The Sweet Escape

01 -=- 01 - Wind It Up.flac -=- CDDA (100%)
02 -=- 02 - The Sweet Escape.flac -=- CDDA (100%)
03 -=- 03 - Orange County Girl.flac -=- CDDA (100%)
04 -=- 04 - Early Winter.flac -=- ERROR
04 -=- 05 - Now That You Got It.flac -=- CDDA (100%)
05 -=- 06 - 4 In The Morning.flac -=- CDDA (100%)
06 -=- 07 - Yummy.flac -=- CDDA (100%)
07 -=- 08 - Fluorescent.flac -=- ERROR
07 -=- 09 - Breakin' Up.flac -=- CDDA (100%)
08 -=- 10 - Don't Get It Twisted.flac -=- CDDA (100%)
09 -=- 11 - U Started It.flac -=- CDDA (100%)
10 -=- 12 - Wonderful Life.flac -=- CDDA (100%)
11 -=- 13 - Wind It Up (Harajuku Lovers Live Version).flac -=- CDDA (100%)

Сводка 100,00% CDDA

95922644
Время раздачи: 24/7 (круглосуточно)


Поглощение/вытеснение
Только с согласия релизера

DesideriuM

Реставрация релиза: Pashketan
[NNM-Club.ru]_Gwen_Stefani_-_The_Sweet_Escape.torrent
 Торрент: Платиновая раздача  Зарегистрирован
 
Скачать


 Зарегистрирован:   10 Ноя 2009 23:54:48
 Размер:   356 MB  (
 Рейтинг:   4,9 (Голосов: 20)
 Поблагодарили:   52
 Проверка:   Оформление проверено модератором 10 Ноя 2009 23:59:43
Как cкачать  ·  Как раздать  ·  Правильно оформить  ·  Поднять ратио!  
xam69
Стаж: 10 лет 2 мес.
Сообщений: 1227
Ratio: 10,18
Раздал: 10,16 TB
Поблагодарили: 5173
100%
Откуда: Moscow
ussr.gif
спасибо. для тех кто захочет в мр3
Показать сообщения:   
Начать новую тему   Ответить на тему    Торрент-трекер NNM-Club -> Pop -> Зарубежная поп-музыка (Lossless) Часовой пояс: GMT + 3
Страница 1 из 1