Классический форум-трекер
canvas not supported
Нас вместе: 4 068 621

Chris Rea - Still So Far To Go...The Best Of Chris Rea (2009) 2CD [FLAC|Lossless]<Blues>


 
 
RSS
Начать новую тему   Ответить на тему    Торрент-трекер NNM-Club -> Jazz, Blues, Soul -> Blues, Soul (Lossless)
Автор Сообщение
SUPERHORST ®
Стаж: 10 лет
Сообщений: 127
Ratio: 9,147
Поблагодарили: 510
100%
Откуда: Забытая Нагайщина
pirates.png
Chris Rea - Still So Far To Go...The Best Of Chris Rea (2009)
Год: 2009
Жанр: Blues
Лейбл: Rhino Records, Jazzee Blue
Номер по каталогу: 2564 68662 9 (Discogs)
Продолжительность: 02:33:18

Кодек: FLAC
Битрейт: Lossless
Тип рипа: tracks + .cue

Треклист:
Disc 1
01. Fool (If You Think It's Over) [04:07]
02. On The Beach [03:46]
03. Let's Dance [04:17]
04. Diamonds [04:11]
05. Loving You [03:48]
06. I Can Hear Your Heartbeat [03:26]
07. I Don't Know What It Is But I Love It [03:37]
08. Stainsby Girls [04:08]
09. Josephine [04:36]
10. It's All Gone [04:11]
11. Loving You Again [04:27]
12. Joys Of Christmas [05:05]
13. Driving Home For Christmas [04:02]
14. Working On It [04:27]
15. Tell Me There's A Heaven [06:03]
16. Heaven [04:12]
17. Looking For The Summer [05:06]
18. Come So Far, Yet Still So Far To Go [04:14]
Продолжительнoсть: 01:17:52

Disc 2
01. The Road To Hell (Part 2) [04:33]
02. Auberge [04:43]
03. Winter Song [04:37]
04. Nothing To Fear [04:30]
05. God's Great Banana Skin [05:21]
06. Julia [03:57]
07. You Can Go Your Own Way [03:59]
08. When The Grey Skies Turn To Blue [03:44]
09. The Blue Cafe [04:02]
10. New Times Square [04:01]
11. Stoney Road [05:32]
12. Easy Rider [04:50]
13. Blue Street [07:09]
14. Somewhere Between Highway 61&49 [06:09]
15. Shadow Of A Fool [03:58]
16. Valentino [04:30]
Продолжительнoсть: 01:15:43
Код:

Exact Audio Copy V0.99 prebeta 4 from 23. January 2008

EAC extraction logfile from 11. October 2009, 20:05

Chris Rea / Still So Far To Go...The Best Of Chris Rea - Cd One

Used drive  : _NEC    DVD+-RW ND-3530A   Adapter: 0  ID: 1

Read mode               : Secure
Utilize accurate stream : Yes
Defeat audio cache      : Yes
Make use of C2 pointers : No

Read offset correction                      : 48
Overread into Lead-In and Lead-Out          : No
Fill up missing offset samples with silence : Yes
Delete leading and trailing silent blocks   : No
Null samples used in CRC calculations       : Yes
Used interface                              : Native Win32 interface for Win NT & 2000
Gap handling                                : Appended to previous track

Used output format              : User Defined Encoder
Selected bitrate                : 768 kBit/s
Quality                         : High
Add ID3 tag                     : No
Command line compressor         : I:\Program Files\Exact Audio Copy\FLAC\FLAC.EXE
Additional command line options : -V -8 -T "artist=%a" -T "title=%t" -T "album=%g" -T "date=%y" -T "tracknumber=%n" -T "genre=%m" %s

TOC of the extracted CD

     Track |   Start  |  Length  | Start sector | End sector
    ---------------------------------------------------------
        1  |  0:00.00 |  4:07.30 |         0    |    18554
        2  |  4:07.30 |  3:46.13 |     18555    |    35517
        3  |  7:53.43 |  4:17.04 |     35518    |    54796
        4  | 12:10.47 |  4:11.71 |     54797    |    73692
        5  | 16:22.43 |  3:48.33 |     73693    |    90825
        6  | 20:11.01 |  3:26.74 |     90826    |   106349
        7  | 23:38.00 |  3:37.32 |    106350    |   122656
        8  | 27:15.32 |  4:08.39 |    122657    |   141295
        9  | 31:23.71 |  4:36.65 |    141296    |   162060
       10  | 36:00.61 |  4:11.42 |    162061    |   180927
       11  | 40:12.28 |  4:27.65 |    180928    |   201017
       12  | 44:40.18 |  5:05.23 |    201018    |   223915
       13  | 49:45.41 |  4:02.46 |    223916    |   242111
       14  | 53:48.12 |  4:27.03 |    242112    |   262139
       15  | 58:15.15 |  6:03.26 |    262140    |   289390
       16  | 64:18.41 |  4:12.59 |    289391    |   308349
       17  | 68:31.25 |  5:06.18 |    308350    |   331317
       18  | 73:37.43 |  4:14.15 |    331318    |   350382

Track  1

     Filename I:\ripped for torrents\Chris Rea -  - Still So Far To Go...The Best Of Chris Rea - Cd One - FLAC\01-Fool (If You Think It's Over).wav

     Pre-gap length  0:00:02.00

     Peak level 99.9 %
     Track quality 99.9 %
     Test CRC F9A77B9F
     Copy CRC F9A77B9F
     Track not present in AccurateRip database
     Copy OK

Track  2

     Filename I:\ripped for torrents\Chris Rea -  - Still So Far To Go...The Best Of Chris Rea - Cd One - FLAC\02-On The Beach.wav

     Peak level 99.9 %
     Track quality 100.0 %
     Test CRC 4505C6E3
     Copy CRC 4505C6E3
     Track not present in AccurateRip database
     Copy OK

Track  3

     Filename I:\ripped for torrents\Chris Rea -  - Still So Far To Go...The Best Of Chris Rea - Cd One - FLAC\03-Let's Dance.wav

     Pre-gap length  0:00:02.14

     Peak level 99.9 %
     Track quality 100.0 %
     Test CRC A4ED8A5F
     Copy CRC A4ED8A5F
     Track not present in AccurateRip database
     Copy OK

Track  4

     Filename I:\ripped for torrents\Chris Rea -  - Still So Far To Go...The Best Of Chris Rea - Cd One - FLAC\04-Diamonds.wav

     Pre-gap length  0:00:00.72

     Peak level 99.9 %
     Track quality 100.0 %
     Test CRC 284B74D7
     Copy CRC 284B74D7
     Track not present in AccurateRip database
     Copy OK

Track  5

     Filename I:\ripped for torrents\Chris Rea -  - Still So Far To Go...The Best Of Chris Rea - Cd One - FLAC\05-Loving You.wav

     Pre-gap length  0:00:02.25

     Peak level 99.7 %
     Track quality 99.9 %
     Test CRC 49E6CE37
     Copy CRC 49E6CE37
     Track not present in AccurateRip database
     Copy OK

Track  6

     Filename I:\ripped for torrents\Chris Rea -  - Still So Far To Go...The Best Of Chris Rea - Cd One - FLAC\06-I Can Hear Your Heartbeat.wav

     Pre-gap length  0:00:00.48

     Peak level 99.9 %
     Track quality 100.0 %
     Test CRC 904A23B8
     Copy CRC 904A23B8
     Track not present in AccurateRip database
     Copy OK

Track  7

     Filename I:\ripped for torrents\Chris Rea -  - Still So Far To Go...The Best Of Chris Rea - Cd One - FLAC\07-I Don't Know What It Is But I Love It.wav

     Pre-gap length  0:00:00.81

     Peak level 99.7 %
     Track quality 100.0 %
     Test CRC E547C2C2
     Copy CRC E547C2C2
     Track not present in AccurateRip database
     Copy OK

Track  8

     Filename I:\ripped for torrents\Chris Rea -  - Still So Far To Go...The Best Of Chris Rea - Cd One - FLAC\08-Stainsby Girls.wav

     Pre-gap length  0:00:01.85

     Peak level 99.7 %
     Track quality 100.0 %
     Test CRC B9558A86
     Copy CRC B9558A86
     Track not present in AccurateRip database
     Copy OK

Track  9

     Filename I:\ripped for torrents\Chris Rea -  - Still So Far To Go...The Best Of Chris Rea - Cd One - FLAC\09-Josephine.wav

     Pre-gap length  0:00:01.74

     Peak level 99.9 %
     Track quality 100.0 %
     Test CRC 9BFDBAC4
     Copy CRC 9BFDBAC4
     Track not present in AccurateRip database
     Copy OK

Track 10

     Filename I:\ripped for torrents\Chris Rea -  - Still So Far To Go...The Best Of Chris Rea - Cd One - FLAC\10-It's All Gone.wav

     Pre-gap length  0:00:00.62

     Peak level 99.9 %
     Track quality 100.0 %
     Test CRC A1FADC23
     Copy CRC A1FADC23
     Track not present in AccurateRip database
     Copy OK

Track 11

     Filename I:\ripped for torrents\Chris Rea -  - Still So Far To Go...The Best Of Chris Rea - Cd One - FLAC\11-Loving You Again.wav

     Pre-gap length  0:00:01.92

     Peak level 99.9 %
     Track quality 100.0 %
     Test CRC E8290020
     Copy CRC E8290020
     Track not present in AccurateRip database
     Copy OK

Track 12

     Filename I:\ripped for torrents\Chris Rea -  - Still So Far To Go...The Best Of Chris Rea - Cd One - FLAC\12-Joys Of Christmas.wav

     Pre-gap length  0:00:01.81

     Peak level 99.9 %
     Track quality 100.0 %
     Test CRC E388D62A
     Copy CRC E388D62A
     Track not present in AccurateRip database
     Copy OK

Track 13

     Filename I:\ripped for torrents\Chris Rea -  - Still So Far To Go...The Best Of Chris Rea - Cd One - FLAC\13-Driving Home For Christmas.wav

     Pre-gap length  0:00:01.26

     Peak level 99.9 %
     Track quality 100.0 %
     Test CRC 1F822A29
     Copy CRC 1F822A29
     Track not present in AccurateRip database
     Copy OK

Track 14

     Filename I:\ripped for torrents\Chris Rea -  - Still So Far To Go...The Best Of Chris Rea - Cd One - FLAC\14-Working On It.wav

     Pre-gap length  0:00:00.09

     Peak level 99.9 %
     Track quality 100.0 %
     Test CRC 80C87781
     Copy CRC 80C87781
     Track not present in AccurateRip database
     Copy OK

Track 15

     Filename I:\ripped for torrents\Chris Rea -  - Still So Far To Go...The Best Of Chris Rea - Cd One - FLAC\15-Tell Me There's A Heaven.wav

     Pre-gap length  0:00:01.26

     Peak level 99.8 %
     Track quality 100.0 %
     Test CRC 4ECDE6CA
     Copy CRC 4ECDE6CA
     Track not present in AccurateRip database
     Copy OK

Track 16

     Filename I:\ripped for torrents\Chris Rea -  - Still So Far To Go...The Best Of Chris Rea - Cd One - FLAC\16-Heaven.wav

     Pre-gap length  0:00:01.28

     Peak level 99.9 %
     Track quality 100.0 %
     Test CRC 093FC15B
     Copy CRC 093FC15B
     Track not present in AccurateRip database
     Copy OK

Track 17

     Filename I:\ripped for torrents\Chris Rea -  - Still So Far To Go...The Best Of Chris Rea - Cd One - FLAC\17-Looking For The Summer.wav

     Pre-gap length  0:00:00.29

     Peak level 99.9 %
     Track quality 100.0 %
     Test CRC A431D92E
     Copy CRC A431D92E
     Track not present in AccurateRip database
     Copy OK

Track 18

     Filename I:\ripped for torrents\Chris Rea -  - Still So Far To Go...The Best Of Chris Rea - Cd One - FLAC\18-Come So Far, Yet Still So Far To Go.wav

     Pre-gap length  0:00:02.86

     Peak level 99.9 %
     Track quality 100.0 %
     Test CRC 3FF4192C
     Copy CRC 3FF4192C
     Track not present in AccurateRip database
     Copy OK

None of the tracks are present in the AccurateRip database

No errors occurred

End of status report

Код:

Exact Audio Copy V0.99 prebeta 4 from 23. January 2008

EAC extraction logfile from 11. October 2009, 21:24

Chris Rea / Still So Far To Go...The Best Of Chris Rea - Cd Two

Used drive  : _NEC    DVD+-RW ND-3530A   Adapter: 0  ID: 1

Read mode               : Secure
Utilize accurate stream : Yes
Defeat audio cache      : Yes
Make use of C2 pointers : No

Read offset correction                      : 48
Overread into Lead-In and Lead-Out          : No
Fill up missing offset samples with silence : Yes
Delete leading and trailing silent blocks   : No
Null samples used in CRC calculations       : Yes
Used interface                              : Native Win32 interface for Win NT & 2000
Gap handling                                : Appended to previous track

Used output format              : User Defined Encoder
Selected bitrate                : 768 kBit/s
Quality                         : High
Add ID3 tag                     : No
Command line compressor         : I:\Program Files\Exact Audio Copy\FLAC\FLAC.EXE
Additional command line options : -V -8 -T "artist=%a" -T "title=%t" -T "album=%g" -T "date=%y" -T "tracknumber=%n" -T "genre=%m" %s

TOC of the extracted CD

     Track |   Start  |  Length  | Start sector | End sector
    ---------------------------------------------------------
        1  |  0:00.00 |  4:33.43 |         0    |    20517
        2  |  4:33.43 |  4:43.33 |     20518    |    41775
        3  |  9:17.01 |  4:37.73 |     41776    |    62623
        4  | 13:54.74 |  4:30.73 |     62624    |    82946
        5  | 18:25.72 |  5:21.36 |     82947    |   107057
        6  | 23:47.33 |  3:57.22 |    107058    |   124854
        7  | 27:44.55 |  3:59.41 |    124855    |   142820
        8  | 31:44.21 |  3:44.26 |    142821    |   159646
        9  | 35:28.47 |  4:02.58 |    159647    |   177854
       10  | 39:31.30 |  4:01.32 |    177855    |   195961
       11  | 43:32.62 |  5:32.57 |    195962    |   220918
       12  | 49:05.44 |  4:50.05 |    220919    |   242673
       13  | 53:55.49 |  7:09.37 |    242674    |   274885
       14  | 61:05.11 |  6:09.24 |    274886    |   302584
       15  | 67:14.35 |  3:58.23 |    302585    |   320457
       16  | 71:12.58 |  4:30.34 |    320458    |   340741

Track  1

     Filename I:\ripped for torrents\Chris Rea -  - Still So Far To Go...The Best Of Chris Rea - Cd Two - FLAC\01-The Road To Hell (Part 2).wav

     Pre-gap length  0:00:02.00

     Peak level 99.9 %
     Track quality 100.0 %
     Test CRC B2185EB0
     Copy CRC B2185EB0
     Track not present in AccurateRip database
     Copy OK

Track  2

     Filename I:\ripped for torrents\Chris Rea -  - Still So Far To Go...The Best Of Chris Rea - Cd Two - FLAC\02-Auberge.wav

     Pre-gap length  0:00:00.69

     Peak level 99.9 %
     Track quality 100.0 %
     Test CRC 94A66D21
     Copy CRC 94A66D21
     Track not present in AccurateRip database
     Copy OK

Track  3

     Filename I:\ripped for torrents\Chris Rea -  - Still So Far To Go...The Best Of Chris Rea - Cd Two - FLAC\03-Winter Song.wav

     Pre-gap length  0:00:02.32

     Peak level 99.9 %
     Track quality 100.0 %
     Test CRC 05AF9332
     Copy CRC 05AF9332
     Track not present in AccurateRip database
     Copy OK

Track  4

     Filename I:\ripped for torrents\Chris Rea -  - Still So Far To Go...The Best Of Chris Rea - Cd Two - FLAC\04-Nothing To Fear.wav

     Pre-gap length  0:00:01.34

     Peak level 94.2 %
     Track quality 99.9 %
     Test CRC 185A6E93
     Copy CRC 185A6E93
     Track not present in AccurateRip database
     Copy OK

Track  5

     Filename I:\ripped for torrents\Chris Rea -  - Still So Far To Go...The Best Of Chris Rea - Cd Two - FLAC\05-God's Great Banana Skin.wav

     Pre-gap length  0:00:02.96

     Peak level 99.9 %
     Track quality 100.0 %
     Test CRC 1A319FD9
     Copy CRC 1A319FD9
     Track not present in AccurateRip database
     Copy OK

Track  6

     Filename I:\ripped for torrents\Chris Rea -  - Still So Far To Go...The Best Of Chris Rea - Cd Two - FLAC\06-Julia.wav

     Pre-gap length  0:00:02.61

     Peak level 99.9 %
     Track quality 100.0 %
     Test CRC D2F8D17A
     Copy CRC D2F8D17A
     Track not present in AccurateRip database
     Copy OK

Track  7

     Filename I:\ripped for torrents\Chris Rea -  - Still So Far To Go...The Best Of Chris Rea - Cd Two - FLAC\07-You Can Go Your Own Way.wav

     Pre-gap length  0:00:01.86

     Peak level 99.7 %
     Track quality 100.0 %
     Test CRC 7403D5AA
     Copy CRC 7403D5AA
     Track not present in AccurateRip database
     Copy OK

Track  8

     Filename I:\ripped for torrents\Chris Rea -  - Still So Far To Go...The Best Of Chris Rea - Cd Two - FLAC\08-When The Grey Skies Turn To Blue.wav

     Pre-gap length  0:00:02.97

     Peak level 99.7 %
     Track quality 100.0 %
     Test CRC F96B9945
     Copy CRC F96B9945
     Track not present in AccurateRip database
     Copy OK

Track  9

     Filename I:\ripped for torrents\Chris Rea -  - Still So Far To Go...The Best Of Chris Rea - Cd Two - FLAC\09-The Blue Cafe.wav

     Pre-gap length  0:00:01.50

     Peak level 99.9 %
     Track quality 100.0 %
     Test CRC 699ABCCA
     Copy CRC 699ABCCA
     Track not present in AccurateRip database
     Copy OK

Track 10

     Filename I:\ripped for torrents\Chris Rea -  - Still So Far To Go...The Best Of Chris Rea - Cd Two - FLAC\10-New Times Square.wav

     Pre-gap length  0:00:03.65

     Peak level 99.9 %
     Track quality 99.9 %
     Test CRC 62BF4B09
     Copy CRC 62BF4B09
     Track not present in AccurateRip database
     Copy OK

Track 11

     Filename I:\ripped for torrents\Chris Rea -  - Still So Far To Go...The Best Of Chris Rea - Cd Two - FLAC\11-Stoney Road.wav

     Pre-gap length  0:00:01.84

     Peak level 99.9 %
     Track quality 100.0 %
     Test CRC 76024CF0
     Copy CRC 76024CF0
     Track not present in AccurateRip database
     Copy OK

Track 12

     Filename I:\ripped for torrents\Chris Rea -  - Still So Far To Go...The Best Of Chris Rea - Cd Two - FLAC\12-Easy Rider.wav

     Pre-gap length  0:00:03.01

     Peak level 99.7 %
     Track quality 100.0 %
     Test CRC 9270A8CD
     Copy CRC 9270A8CD
     Track not present in AccurateRip database
     Copy OK

Track 13

     Filename I:\ripped for torrents\Chris Rea -  - Still So Far To Go...The Best Of Chris Rea - Cd Two - FLAC\13-Blue Street.wav

     Pre-gap length  0:00:00.85

     Peak level 99.7 %
     Track quality 100.0 %
     Test CRC 6D338434
     Copy CRC 6D338434
     Track not present in AccurateRip database
     Copy OK

Track 14

     Filename I:\ripped for torrents\Chris Rea -  - Still So Far To Go...The Best Of Chris Rea - Cd Two - FLAC\14-Somewhere Between Highway 61 & 49.wav

     Pre-gap length  0:00:00.28

     Peak level 99.7 %
     Track quality 100.0 %
     Test CRC 736855EA
     Copy CRC 736855EA
     Track not present in AccurateRip database
     Copy OK

Track 15

     Filename I:\ripped for torrents\Chris Rea -  - Still So Far To Go...The Best Of Chris Rea - Cd Two - FLAC\15-Shadow Of A Fool.wav

     Pre-gap length  0:00:00.28

     Peak level 99.9 %
     Track quality 100.0 %
     Test CRC 40DEB78E
     Copy CRC 40DEB78E
     Track not present in AccurateRip database
     Copy OK

Track 16

     Filename I:\ripped for torrents\Chris Rea -  - Still So Far To Go...The Best Of Chris Rea - Cd Two - FLAC\16-Valentino.wav

     Pre-gap length  0:00:00.28

     Peak level 99.7 %
     Track quality 100.0 %
     Test CRC FE973DE5
     Copy CRC FE973DE5
     Track not present in AccurateRip database
     Copy OK

None of the tracks are present in the AccurateRip database

No errors occurred

End of status report

Код:

AUDIOCHECKER v2.0 beta (build 457) - by Dester - opdester@freemail.hu
~~~~~~~~~~~~~~~~~~~~~~~~~~~~~~~~~~
-=== НЕ РЕДАКТИРУЙТЕ ЭТОТ ФАЙЛ! ===-

Путь: ...\CD#1

01 -=- 01 - Fool (If You Think It's Over).flac -=- CDDA (100%)
02 -=- 02 - On The Beach.flac -=- CDDA (100%)
03 -=- 03 - Let's Dance.flac -=- CDDA (100%)
04 -=- 04 - Diamonds.flac -=- CDDA (100%)
05 -=- 05 - Loving You.flac -=- CDDA (100%)
06 -=- 06 - I Can Hear Your Heartbeat.flac -=- CDDA (100%)
07 -=- 07 - I Don't Know What It Is But I Love It.flac -=- CDDA (100%)
08 -=- 08 - Stainsby Girls.flac -=- CDDA (100%)
09 -=- 09 - Josephine.flac -=- MPEG (90%)
10 -=- 10 - It's All Gone.flac -=- CDDA (100%)
11 -=- 11 - Loving You Again.flac -=- CDDA (100%)
12 -=- 12 - Joys Of Christmas.flac -=- CDDA (99%)
13 -=- 13 - Driving Home For Christmas.flac -=- CDDA (100%)
14 -=- 14 - Working On It.flac -=- CDDA (62%)
15 -=- 15 - Tell Me There's A Heaven.flac -=- CDDA (99%)
16 -=- 16 - Heaven.flac -=- CDDA (100%)
17 -=- 17 - Looking For The Summer.flac -=- CDDA (100%)
18 -=- 18 - Come So Far, Yet Still So Far To Go.flac -=- CDDA (100%)
19 -=- 18 - Come So Far, Yet Still So Far To Go.flac -=- CDDA (100%)
20 -=- 01 - Fool (If You Think It's Over).flac -=- CDDA (100%)
21 -=- 02 - On The Beach.flac -=- CDDA (100%)
22 -=- 03 - Let's Dance.flac -=- CDDA (100%)
23 -=- 04 - Diamonds.flac -=- CDDA (100%)
24 -=- 05 - Loving You.flac -=- CDDA (100%)
25 -=- 06 - I Can Hear Your Heartbeat.flac -=- CDDA (100%)
26 -=- 07 - I Don't Know What It Is But I Love It.flac -=- CDDA (100%)
27 -=- 08 - Stainsby Girls.flac -=- CDDA (100%)
28 -=- 09 - Josephine.flac -=- MPEG (90%)
29 -=- 10 - It's All Gone.flac -=- CDDA (100%)
30 -=- 11 - Loving You Again.flac -=- CDDA (100%)
31 -=- 12 - Joys Of Christmas.flac -=- CDDA (99%)
32 -=- 13 - Driving Home For Christmas.flac -=- CDDA (100%)
33 -=- 14 - Working On It.flac -=- CDDA (62%)
34 -=- 15 - Tell Me There's A Heaven.flac -=- CDDA (99%)
35 -=- 16 - Heaven.flac -=- CDDA (100%)
36 -=- 17 - Looking For The Summer.flac -=- CDDA (100%)

Сводка 92,78% CDDA

31693700

Код:

AUDIOCHECKER v2.0 beta (build 457) - by Dester - opdester@freemail.hu
~~~~~~~~~~~~~~~~~~~~~~~~~~~~~~~~~~
-=== НЕ РЕДАКТИРУЙТЕ ЭТОТ ФАЙЛ! ===-

Путь: ...\CD#2

01 -=- 01 - The Road To Hell (Part 2).flac -=- CDDA (100%)
02 -=- 02 - Auberge.flac -=- CDDA (100%)
03 -=- 03 - Winter Song.flac -=- CDDA (100%)
04 -=- 04 - Nothing To Fear.flac -=- CDDA (100%)
05 -=- 05 - God's Great Banana Skin.flac -=- CDDA (100%)
06 -=- 06 - Julia.flac -=- CDDA (100%)
07 -=- 07 - You Can Go Your Own Way.flac -=- CDDA (100%)
08 -=- 08 - When The Grey Skies Turn To Blue.flac -=- CDDA (100%)
09 -=- 09 - The Blue Cafe.flac -=- CDDA (99%)
10 -=- 10 - New Times Square.flac -=- CDDA (100%)
11 -=- 11 - Stoney Road.flac -=- CDDA (100%)
12 -=- 12 - Easy Rider.flac -=- CDDA (99%)
13 -=- 13 - Blue Street.flac -=- CDDA (100%)
14 -=- 14 - Somewhere Between Highway 61 & 49.flac -=- CDDA (100%)
15 -=- 15 - Shadow Of A Fool.flac -=- CDDA (99%)
16 -=- 16 - Valentino.flac -=- CDDA (100%)

Сводка 99,81% CDDA

27965572

Код:

-----------------------

DON'T MODIFY THIS FILE

-----------------------

PERFORMER: auCDtect Task Manager, ver. 1.6.0 RC1 build 1.6.0.1
Copyright (c) 2008-2010 y-soft. All rights reserved
http://y-soft.org

ANALYZER: auCDtect: CD records authenticity detector, version 0.8.2
Copyright (c) 2004 Oleg Berngardt. All rights reserved.
Copyright (c) 2004 Alexander Djourik. All rights reserved.

FILE: 18 - Come So Far, Yet Still So Far To Go.flac
  Size: 30150573 Hash: D454ED9B5B33B4908C1247175BC2C1FE Accuracy: -m0
  Conclusion: CDDA 100%
  Signature: AFADA359FCCFB4119FA59474AACACCE2517367CE
FILE: 17 - Looking For The Summer.flac
  Size: 38255916 Hash: 98B3913195418DA129789CBC95B14E54 Accuracy: -m0
  Conclusion: CDDA 100%
  Signature: 0DD333569A508C1BD013B069CBEAC80B3C472C1C
FILE: 16 - Heaven.flac
  Size: 28821239 Hash: 3A4E84F0E8DDE3DA9B774155C7185E5C Accuracy: -m0
  Conclusion: CDDA 100%
  Signature: FE165D559E50DAE796A2F3947EB5946A0E3EA0A5
FILE: 15 - Tell Me There's A Heaven.flac
  Size: 37517761 Hash: 3A1B9AD60EEDC3C8474A20B984EE23B0 Accuracy: -m0
  Conclusion: CDDA 99%
  Signature: D5D15CE5DA81171062AC3943C5B261FC4CA613C6
FILE: 14 - Working On It.flac
  Size: 33254550 Hash: 9AAD4198AFDAA5396CE564B672C4CEFA Accuracy: -m0
  Conclusion: CDDA 62%
  Signature: D46AAA50D3723B5CB91A72D9F6B511A20F64B640
FILE: 13 - Driving Home For Christmas.flac
  Size: 29000604 Hash: 5F8131B85262A8F8D9384BBF82985EE6 Accuracy: -m0
  Conclusion: CDDA 100%
  Signature: 736DB3D83791E2DEA86FBA8CB977B1B0AAD6F4C5
FILE: 12 - Joys Of Christmas.flac
  Size: 34401571 Hash: 7B509A9CABAE22C863E44C48FAE34BA4 Accuracy: -m0
  Conclusion: CDDA 99%
  Signature: C82E746BBD26FD63698F64CE59C1E831816231EA
FILE: 11 - Loving You Again.flac
  Size: 35667705 Hash: ED4884D4B25FAF6983B429A93AC6A900 Accuracy: -m0
  Conclusion: CDDA 100%
  Signature: 794F96248F1C678CCA40F53BA93954D88662E633
FILE: 10 - It's All Gone.flac
  Size: 30566953 Hash: 4C360A246CFF5B3EC061B4CB712A3E6F Accuracy: -m0
  Conclusion: CDDA 100%
  Signature: F5870F5B680E90DE0B9BCEF2C3F959FA3CFF7825
FILE: 09 - Josephine.flac
  Size: 35008913 Hash: B1E7F10446C6BDDDF1A82EF85118C5F2 Accuracy: -m0
  Conclusion: MPEG 90%
  Signature: 46EFA3C434D04AA2D206A259AB50CE8D9DC6553C
FILE: 08 - Stainsby Girls.flac
  Size: 30048333 Hash: 31DF0A91CE1777E46D865D6859BDD149 Accuracy: -m0
  Conclusion: CDDA 100%
  Signature: 77F757A21F6F008F79766758E08E45CE2A5ECBD3
FILE: 07 - I Don't Know What It Is But I Love It.flac
  Size: 27098985 Hash: 2225E89299A340693A833026340D2758 Accuracy: -m0
  Conclusion: CDDA 100%
  Signature: 016ECAAB287D61C2509799F0D74A88C6DD1DC8C4
FILE: 06 - I Can Hear Your Heartbeat.flac
  Size: 26686358 Hash: 2AEC50414BE5C870FA7AC4F54063CD22 Accuracy: -m0
  Conclusion: CDDA 100%
  Signature: 5DF245A9BB7181F87C05071ACC2C1126399E0190
FILE: 05 - Loving You.flac
  Size: 24993239 Hash: 10FCA5784D950364568106DEB3FD937C Accuracy: -m0
  Conclusion: CDDA 100%
  Signature: 9BA9EE1A9AF00516E3AAEC8CB59B7DFAB154CA8E
FILE: 04 - Diamonds.flac
  Size: 33556300 Hash: 0B33B22D41C2A80F0412F97C8D866A04 Accuracy: -m0
  Conclusion: CDDA 100%
  Signature: D5B05E06928200CFAD77C159BE1DF6B74888BEA1
FILE: 03 - Let's Dance.flac
  Size: 30997912 Hash: 8B0BFA4E439B1D4DBD0B0D7FD5136A73 Accuracy: -m0
  Conclusion: CDDA 100%
  Signature: DBDA22255AB892F81696A21FE068EE20205DFEC5
FILE: 02 - On The Beach.flac
  Size: 26792281 Hash: EA4E3D741495398CE451DC779385EE02 Accuracy: -m0
  Conclusion: CDDA 100%
  Signature: 5AD7DA46C9DD110DAFA1A48D45DB2E6698DACC85
FILE: 01 - Fool (If You Think It's Over).flac
  Size: 29421549 Hash: 1F1275F43149A8745BD2A5A151196972 Accuracy: -m0
  Conclusion: CDDA 100%
  Signature: 88A28916CFD1482AF7693B4E58C6245C00D67EA5

Код:

-----------------------

DON'T MODIFY THIS FILE

-----------------------

PERFORMER: auCDtect Task Manager, ver. 1.6.0 RC1 build 1.6.0.1
Copyright (c) 2008-2010 y-soft. All rights reserved
http://y-soft.org

ANALYZER: auCDtect: CD records authenticity detector, version 0.8.2
Copyright (c) 2004 Oleg Berngardt. All rights reserved.
Copyright (c) 2004 Alexander Djourik. All rights reserved.

FILE: 16 - Valentino.flac
  Size: 26034624 Hash: 642CFA7D17A7FFB2874AE213B3F3C825 Accuracy: -m0
  Conclusion: CDDA 100%
  Signature: 81F59502C2A0F12824261E6491A48F92DCFE5FF0
FILE: 15 - Shadow Of A Fool.flac
  Size: 23444881 Hash: 08B177D04FD290FF643C077306723C7C Accuracy: -m0
  Conclusion: CDDA 99%
  Signature: 22A12AF8C1F3167B7F1616B2C31F3F888D8166EF
FILE: 14 - Somewhere Between Highway 61 & 49.flac
  Size: 38886066 Hash: C95DAB564504BEF5E08A73590753C2D6 Accuracy: -m0
  Conclusion: CDDA 100%
  Signature: 12243522F18F0371715586BAB0418DBAA88C5415
FILE: 13 - Blue Street.flac
  Size: 45716363 Hash: 54DB0838CF865C13DBEF63EFE787CC58 Accuracy: -m0
  Conclusion: CDDA 100%
  Signature: BACE7B427C93B8206E80B6B495951C5CAFA84F99
FILE: 12 - Easy Rider.flac
  Size: 29816644 Hash: CF4EF78077770E6FE82457AA84525A25 Accuracy: -m0
  Conclusion: CDDA 99%
  Signature: 818EF017DE2913C2B424E576715CF3DDC22FD5EA
FILE: 11 - Stoney Road.flac
  Size: 38320662 Hash: 7D13D6D4E2ED8306DD069F985D36B740 Accuracy: -m0
  Conclusion: CDDA 100%
  Signature: 6ABE2DFA7CEC75F53EA4838D3F3BBAFAE36D7F02
FILE: 10 - New Times Square.flac
  Size: 33238051 Hash: FE4489EC6CD9DDFD45BF0ECB8D710491 Accuracy: -m0
  Conclusion: CDDA 100%
  Signature: C2315552D9A15C6B8F5CC36A94601678D1BEDE2F
FILE: 09 - The Blue Cafe.flac
  Size: 28626400 Hash: 26DC384C96FF3893E463DFA7CC49F693 Accuracy: -m0
  Conclusion: CDDA 99%
  Signature: E41BDAB507AD0A24076F4FFB6941BA6EEA293F12
FILE: 08 - When The Grey Skies Turn To Blue.flac
  Size: 21484518 Hash: 349FB09696E2311F8CD53EBD3943CDBA Accuracy: -m0
  Conclusion: CDDA 100%
  Signature: FEFC4712E8D5DBFD013938622D94BECD8512820C
FILE: 07 - You Can Go Your Own Way.flac
  Size: 28409753 Hash: 9A0277983F27F1C32CBEBA8C96663CEF Accuracy: -m0
  Conclusion: CDDA 100%
  Signature: 581335A771BFD49CD832E9C4E8AADBB21375CA12
FILE: 06 - Julia.flac
  Size: 29452674 Hash: 03C547328072A2BAD94D55196F2606E8 Accuracy: -m0
  Conclusion: CDDA 100%
  Signature: 95BE17C473D41E19B268F04EBF30E26E8215FB3E
FILE: 05 - God's Great Banana Skin.flac
  Size: 39733184 Hash: 8145AD26AEF3B8FBD575BF548FBDD40F Accuracy: -m0
  Conclusion: CDDA 100%
  Signature: E7A2822506B1A369232A911E7CAD736D7CFC49C6
FILE: 04 - Nothing To Fear.flac
  Size: 30229255 Hash: FB66C1C287953BFD2CE0FA660415148E Accuracy: -m0
  Conclusion: CDDA 100%
  Signature: 0AD6231FEAFE32DD8E915F0F5547C582BDA6AE90
FILE: 03 - Winter Song.flac
  Size: 35175282 Hash: EF73388E666EF8A74723626CB1D5C759 Accuracy: -m0
  Conclusion: CDDA 100%
  Signature: D2CE8F5350F82004081314370634A9CD2F3065D6
FILE: 02 - Auberge.flac
  Size: 35394842 Hash: B4877E33F12DCA75C5DB2B32FE4FC8E7 Accuracy: -m0
  Conclusion: CDDA 100%
  Signature: 8D1E6F8ADA54255BEAA3DFEADAD2B59D1C9B4DFA
FILE: 01 - The Road To Hell (Part 2).flac
  Size: 33843340 Hash: 279F87E9E874D3CE56986DEA99BC3670 Accuracy: -m0
  Conclusion: CDDA 100%
  Signature: B9FEB409DC7BCD22DD295F7443661DB4CDEFEDDD

Не забудьте приобрести собственную (легальную) копию альбома, если он вам понравится!
Приятного прослушивания!

Реставрация релиза: Dimitrows
[NNM-Club.ru]_2009_Still So Far To Go...The Best Of Chris Rea (flac+tracks+cue).torrent
 Торрент: Платиновая раздача  Зарегистрирован
 
Скачать


 Зарегистрирован:   11 Ноя 2009 17:20:45
 Размер:   1,01 GB  (
 Рейтинг:   4,9 (Голосов: 42)
 Поблагодарили:   127
 Проверка:   Оформление проверено модератором 11 Ноя 2009 17:50:23
Как cкачать  ·  Как раздать  ·  Правильно оформить  ·  Поднять ратио!  
TOHADVG
Стаж: 9 лет 10 мес.
Сообщений: 24
Ratio: 10,036
Поблагодарили: 108
68.29%
SUPERHORST, спасибо огромное! Если подскажете легальное направление, то вероятнее всего приобрету ощутимую коробочку, а пока буду ощущать звук :respekt:

_________________
Самый хороший стимул - услышанное «спасибо» ™
SUPERHORST ®
Стаж: 10 лет
Сообщений: 127
Ratio: 9,147
Поблагодарили: 510
100%
Откуда: Забытая Нагайщина
pirates.png
TOHADVG, спасибо за вопрос :D:

http://www.amazon.com/Still-Far-Go-Best-Chris/dp/B002IVTW30/ref=sr_1_1/179-6983827-9679824?ie=UTF8&s=music&qid=1258886676&sr
Показать сообщения:   
Начать новую тему   Ответить на тему    Торрент-трекер NNM-Club -> Jazz, Blues, Soul -> Blues, Soul (Lossless) Часовой пояс: GMT + 3
Страница 1 из 1