Классический форум-трекер
canvas not supported
Нас вместе: 4 065 191

Невезучие / La Chevre (1981) HDTVRip [720p]


 
 
RSS
Начать новую тему   Ответить на тему    Торрент-трекер NNM-Club -> Классика кино и Старые фильмы до 90-х -> Зарубежная Классика (HD, UHD, UHD-LQ)
Автор Сообщение
danil2606 ®
Стаж: 11 лет 10 мес.
Сообщений: 165
Ratio: 44,14
Поблагодарили: 2404
100%
ukraine.gif
Невезучие / La Chevre (1981) HDTVRip
Год выпуска: 1981
Жанр: Приключения, Комедия, Криминал
Страна: Франция, Мексика, Мальта

Описание:
Блистательная французская комедия с Пьером Ришаром и Жераром Депардье. Президент компании нанимает сыщика, чтобы разыскать его дочь, пропавшую во время путешествия по Мексике. Ему в помощь он даёт своего сотрудника, такого же "человека-катастрофу", как и она, полагая что это поможет быстрее напасть на след. В поисках девушки "невезучие" переживают массу умопомрачительно смешных приключений.

Режиссер: Франсис Вебер
Актеры: Пьер Ришар, Жерар Депардье, Педро Армендарис мл., Коринн Шарби, Марица Оливарес, Андре Валарди, Хорхе Люк, Серхио Кальдерон, Мишель Робен, Робер Дальбан

Качество видео: HDTVRip
Продолжительность: 01:29:41
Перевод: Дублированный; Многоголосый закадровый
Субтитры: Нет


Дата мировой премьеры: 9 декабря 1981
Дата выхода DVD релиза: 26 апреля 2012, «Союз-Видео»

Видео: MPEG-4 AVC/H.264 1280 x 720, ~11.3 Мбит/с
Аудио #1: AC3, 2ch, 192 Кбит/с (Советский дубляж)
Аудио #2: AC3, 2ch, 192 Кбит/с (Многоголоска Позитив-Мультимедиа)
Аудио #3: AC3, 2ch, 448 Кбит/с (Оригинал)
Сэмпл: Ссылка
Код: выделить все
General
ID                                       : 1 (0x1)
Complete name                            : G:\La.chevre.1981.720p.HDTV.ts
Format                                   : MPEG-TS
File size                                : 7.99 GiB
Duration                                 : 1h 29mn
Overall bit rate mode                    : Variable
Overall bit rate                         : 12.7 Mbps
Maximum Overall bit rate                 : 35.5 Mbps

Video
ID                                       : 4113 (0x1011)
Menu ID                                  : 1 (0x1)
Format                                   : AVC
Format/Info                              : Advanced Video Codec
Format profile                           : High@L4.0
Format settings, CABAC                   : Yes
Format settings, ReFrames                : 2 frames
Format settings, GOP                     : M=3, N=24
Codec ID                                 : 27
Duration                                 : 1h 29mn
Bit rate mode                            : Variable
Bit rate                                 : 11.3 Mbps
Maximum bit rate                         : 13.2 Mbps
Width                                    : 1 280 pixels
Height                                   : 720 pixels
Display aspect ratio                     : 16:9
Frame rate                               : 50.000 fps
Color space                              : YUV
Chroma subsampling                       : 4:2:0
Bit depth                                : 8 bits
Scan type                                : Progressive
Bits/(Pixel*Frame)                       : 0.245
Stream size                              : 7.07 GiB (88%)
Color primaries                          : BT.709-5, BT.1361, IEC 61966-2-4, SMPTE RP177
Transfer characteristics                 : BT.709-5, BT.1361
Matrix coefficients                      : BT.709-5, BT.1361, IEC 61966-2-4 709, SMPTE RP177

Audio #1
ID                                       : 4352 (0x1100)
Menu ID                                  : 1 (0x1)
Format                                   : AC-3
Format/Info                              : Audio Coding 3
Mode extension                           : CM (complete main)
Format settings, Endianness              : Big
Codec ID                                 : 129
Duration                                 : 1h 29mn
Bit rate mode                            : Constant
Bit rate                                 : 192 Kbps
Channel(s)                               : 2 channels
Channel positions                        : Front: L R
Sampling rate                            : 48.0 KHz
Bit depth                                : 16 bits
Compression mode                         : Lossy
Stream size                              : 123 MiB (2%)
Language                                 : Russian

Audio #2
ID                                       : 4353 (0x1101)
Menu ID                                  : 1 (0x1)
Format                                   : AC-3
Format/Info                              : Audio Coding 3
Mode extension                           : CM (complete main)
Format settings, Endianness              : Big
Codec ID                                 : 129
Duration                                 : 1h 29mn
Bit rate mode                            : Constant
Bit rate                                 : 192 Kbps
Channel(s)                               : 2 channels
Channel positions                        : Front: L R
Sampling rate                            : 48.0 KHz
Bit depth                                : 16 bits
Compression mode                         : Lossy
Stream size                              : 123 MiB (2%)
Language                                 : Russian

Audio #3
ID                                       : 4354 (0x1102)
Menu ID                                  : 1 (0x1)
Format                                   : AC-3
Format/Info                              : Audio Coding 3
Mode extension                           : CM (complete main)
Format settings, Endianness              : Big
Codec ID                                 : 129
Duration                                 : 1h 29mn
Bit rate mode                            : Constant
Bit rate                                 : 448 Kbps
Channel(s)                               : 2 channels
Channel positions                        : Front: L R
Sampling rate                            : 48.0 KHz
Bit depth                                : 16 bits
Compression mode                         : Lossy
Delay relative to video                  : 130ms
Stream size                              : 288 MiB (4%)
Language                                 : French
Скриншоты:

Время раздачи: 24/7 - круглосуточно
Все релизы фильма Невезучие / La chevre (1981)
[NNM-Club.ru]_La.chevre.1981.720p.HDTV.ts.torrent
 Торрент: Платиновая раздача  Зарегистрирован
 
Скачать


Примагнититься
 Зарегистрирован:   07 Дек 2018 08:29:32
 Размер:   7,99 GB  (
 Рейтинг:   4,9 (Голосов: 62)
 Поблагодарили:   239
 Проверка:   Оформление проверено модератором 07 Дек 2018 08:31:02
Как cкачать  ·  Как раздать  ·  Правильно оформить  ·  Поднять ратио!  
danil2606 ®
Стаж: 11 лет 10 мес.
Сообщений: 165
Ratio: 44,14
Поблагодарили: 2404
100%
ukraine.gif
О самом фильме, я даже не знаю что и сказать. Смотрел, даже не знаю сколько раз, до сих пор не надоел, шедевр, таких больше не снимают!

...забыл сказать, в дублированной озвучке (советской) есть четыре или пять эпизодов без перевода (секунд по 10-20), вероятно эти сцены были вырезаны в советском прокате, и не были озвучены. В многоголосной закадровой озвучке - перевод полный!
KOLANICH
Стаж: 10 лет 5 мес.
Сообщений: 1361
Ratio: 72,634
Поблагодарили: 450
49.12%
Откуда: DeepTown
russia.gif
«Невезучие» — моя самая любимая комедия с участием Пьера Ришара. Почему самая любимая? Да потому что она самая смешная. По своей идее она схожа с комедией «Рассеяный» (кстати тоже с Пьером Ришаром). Только «Невезучие» гораздо ярче и задорнее. Плюс ко всему прочему Пьер Ришар здесь играет в дуэте с Жераром Депардье. А этот дуэт просто великолепен. На протяжении всего фильма наши герои будут попадать в самые нелепые и дико смешные ситуации. Они будут постоянно ругаться и мириться друг с другом, радуя зрителя забавными диалогами.
danil2606 ®
Стаж: 11 лет 10 мес.
Сообщений: 165
Ratio: 44,14
Поблагодарили: 2404
100%
ukraine.gif
...большая просьба к администрации, можно золото дать на раздачу, ведь фильм этого стоит!
Да и размер не маленький.
Юная леди
Стаж: 9 лет 8 мес.
Сообщений: 53
Ratio: 231,514
Поблагодарили: 167
100%
Откуда: Москва
russia.gif
один из моих любимых фильмов детства, а для меня такие картины дороже всего.
liberzon1990
Стаж: 8 лет
Сообщений: 7
Ratio: 0,474
100%
russia.gif
картинка класная!)
SKVSM
Покровитель талантов
Uploader 100+
 
Стаж: 8 лет 2 мес.
Сообщений: 1052
Ratio: 282,733
Поблагодарили: 19671
100%
nnm-club.gif
dynamo343
Стаж: 9 лет 5 мес.
Сообщений: 114
Ratio: 46,25
100%
north_korea.gif
ошибся темой
samlee
Uploader 100+
Стаж: 11 лет 8 мес.
Сообщений: 977
Ratio: 70,498
Поблагодарили: 24402
100%
А какая шикарная музыка на протяжении всего фильма

_________________
Мои релизы
Показать сообщения:   
Начать новую тему   Ответить на тему    Торрент-трекер NNM-Club -> Классика кино и Старые фильмы до 90-х -> Зарубежная Классика (HD, UHD, UHD-LQ) Часовой пояс: GMT + 3
Страница 1 из 1